  0
SECTION
  2
HEADER
  9
$ACADVER
  1
AC1015
  9
$ACADMAINTVER
 70
    13
  9
$DWGCODEPAGE
  3
ANSI_1252
  9
$INSBASE
 10
0.0
 20
0.0
 30
0.0
  9
$EXTMIN
 10
0.2798612927786053
 20
56.18394730968515
 30
0.0
  9
$EXTMAX
 10
222.1666318393861
 20
219.9773435135643
 30
0.0
  9
$LIMMIN
 10
0.0
 20
0.0
  9
$LIMMAX
 10
12.0
 20
9.0
  9
$ORTHOMODE
 70
     0
  9
$REGENMODE
 70
     1
  9
$FILLMODE
 70
     1
  9
$QTEXTMODE
 70
     0
  9
$MIRRTEXT
 70
     1
  9
$LTSCALE
 40
0.1
  9
$ATTMODE
 70
     1
  9
$TEXTSIZE
 40
0.2
  9
$TRACEWID
 40
0.05
  9
$TEXTSTYLE
  7
ROMANS
  9
$CLAYER
  8
BASE
  9
$CELTYPE
  6
BYLAYER
  9
$CECOLOR
 62
   256
  9
$CELTSCALE
 40
1.0
  9
$DISPSILH
 70
     0
  9
$DIMSCALE
 40
1.0
  9
$DIMASZ
 40
0.045
  9
$DIMEXO
 40
0.0625
  9
$DIMDLI
 40
0.38
  9
$DIMRND
 40
0.0
  9
$DIMDLE
 40
0.0
  9
$DIMEXE
 40
0.18
  9
$DIMTP
 40
0.0
  9
$DIMTM
 40
0.0
  9
$DIMTXT
 40
0.045
  9
$DIMCEN
 40
0.09
  9
$DIMTSZ
 40
0.0
  9
$DIMTOL
 70
     0
  9
$DIMLIM
 70
     0
  9
$DIMTIH
 70
     1
  9
$DIMTOH
 70
     1
  9
$DIMSE1
 70
     0
  9
$DIMSE2
 70
     0
  9
$DIMTAD
 70
     0
  9
$DIMZIN
 70
     0
  9
$DIMBLK
  1

  9
$DIMASO
 70
     1
  9
$DIMSHO
 70
     1
  9
$DIMPOST
  1

  9
$DIMAPOST
  1

  9
$DIMALT
 70
     0
  9
$DIMALTD
 70
     2
  9
$DIMALTF
 40
25.4
  9
$DIMLFAC
 40
1.0
  9
$DIMTOFL
 70
     0
  9
$DIMTVP
 40
0.0
  9
$DIMTIX
 70
     1
  9
$DIMSOXD
 70
     0
  9
$DIMSAH
 70
     0
  9
$DIMBLK1
  1

  9
$DIMBLK2
  1

  9
$DIMSTYLE
  2
QUARTER
  9
$DIMCLRD
 70
     0
  9
$DIMCLRE
 70
     0
  9
$DIMCLRT
 70
     0
  9
$DIMTFAC
 40
1.0
  9
$DIMGAP
 40
0.0225
  9
$DIMJUST
 70
     0
  9
$DIMSD1
 70
     0
  9
$DIMSD2
 70
     0
  9
$DIMTOLJ
 70
     1
  9
$DIMTZIN
 70
     0
  9
$DIMALTZ
 70
     0
  9
$DIMALTTZ
 70
     0
  9
$DIMUPT
 70
     0
  9
$DIMDEC
 70
     3
  9
$DIMTDEC
 70
     1
  9
$DIMALTU
 70
     2
  9
$DIMALTTD
 70
     2
  9
$DIMTXSTY
  7
STANDARD
  9
$DIMAUNIT
 70
     0
  9
$DIMADEC
 70
     0
  9
$DIMALTRND
 40
0.0
  9
$DIMAZIN
 70
     0
  9
$DIMDSEP
 70
    46
  9
$DIMATFIT
 70
     3
  9
$DIMFRAC
 70
     0
  9
$DIMLDRBLK
  1

  9
$DIMLUNIT
 70
     2
  9
$DIMLWD
 70
    -2
  9
$DIMLWE
 70
    -2
  9
$DIMTMOVE
 70
     0
  9
$LUNITS
 70
     2
  9
$LUPREC
 70
     3
  9
$SKETCHINC
 40
0.1
  9
$FILLETRAD
 40
0.0
  9
$AUNITS
 70
     0
  9
$AUPREC
 70
     1
  9
$MENU
  1
acad
  9
$ELEVATION
 40
0.0
  9
$PELEVATION
 40
0.0
  9
$THICKNESS
 40
0.0
  9
$LIMCHECK
 70
     0
  9
$CHAMFERA
 40
0.0
  9
$CHAMFERB
 40
0.0
  9
$CHAMFERC
 40
0.0
  9
$CHAMFERD
 40
0.0
  9
$SKPOLY
 70
     0
  9
$TDCREATE
 40
2449437.721680208
  9
$TDUCREATE
 40
2449437.930013541
  9
$TDUPDATE
 40
2453708.530034756
  9
$TDUUPDATE
 40
2453708.738368090
  9
$TDINDWG
 40
0.5344684838
  9
$TDUSRTIMER
 40
0.5344684838
  9
$USRTIMER
 70
     1
  9
$ANGBASE
 50
0.0
  9
$ANGDIR
 70
     0
  9
$PDMODE
 70
     0
  9
$PDSIZE
 40
0.0
  9
$PLINEWID
 40
0.0
  9
$SPLFRAME
 70
     0
  9
$SPLINETYPE
 70
     6
  9
$SPLINESEGS
 70
     8
  9
$HANDSEED
  5
5EA
  9
$SURFTAB1
 70
     6
  9
$SURFTAB2
 70
     6
  9
$SURFTYPE
 70
     6
  9
$SURFU
 70
     6
  9
$SURFV
 70
     6
  9
$UCSBASE
  2

  9
$UCSNAME
  2

  9
$UCSORG
 10
0.0
 20
0.0
 30
0.0
  9
$UCSXDIR
 10
1.0
 20
0.0
 30
0.0
  9
$UCSYDIR
 10
0.0
 20
1.0
 30
0.0
  9
$UCSORTHOREF
  2

  9
$UCSORTHOVIEW
 70
     0
  9
$UCSORGTOP
 10
0.0
 20
0.0
 30
0.0
  9
$UCSORGBOTTOM
 10
0.0
 20
0.0
 30
0.0
  9
$UCSORGLEFT
 10
0.0
 20
0.0
 30
0.0
  9
$UCSORGRIGHT
 10
0.0
 20
0.0
 30
0.0
  9
$UCSORGFRONT
 10
0.0
 20
0.0
 30
0.0
  9
$UCSORGBACK
 10
0.0
 20
0.0
 30
0.0
  9
$PUCSBASE
  2

  9
$PUCSNAME
  2

  9
$PUCSORG
 10
0.0
 20
0.0
 30
0.0
  9
$PUCSXDIR
 10
1.0
 20
0.0
 30
0.0
  9
$PUCSYDIR
 10
0.0
 20
1.0
 30
0.0
  9
$PUCSORTHOREF
  2

  9
$PUCSORTHOVIEW
 70
     0
  9
$PUCSORGTOP
 10
0.0
 20
0.0
 30
0.0
  9
$PUCSORGBOTTOM
 10
0.0
 20
0.0
 30
0.0
  9
$PUCSORGLEFT
 10
0.0
 20
0.0
 30
0.0
  9
$PUCSORGRIGHT
 10
0.0
 20
0.0
 30
0.0
  9
$PUCSORGFRONT
 10
0.0
 20
0.0
 30
0.0
  9
$PUCSORGBACK
 10
0.0
 20
0.0
 30
0.0
  9
$USERI1
 70
     0
  9
$USERI2
 70
     0
  9
$USERI3
 70
     0
  9
$USERI4
 70
     0
  9
$USERI5
 70
     0
  9
$USERR1
 40
0.0
  9
$USERR2
 40
0.0
  9
$USERR3
 40
0.0
  9
$USERR4
 40
0.0
  9
$USERR5
 40
0.0
  9
$WORLDVIEW
 70
     1
  9
$SHADEDGE
 70
     3
  9
$SHADEDIF
 70
    70
  9
$TILEMODE
 70
     1
  9
$MAXACTVP
 70
    16
  9
$PINSBASE
 10
0.0
 20
0.0
 30
0.0
  9
$PLIMCHECK
 70
     0
  9
$PEXTMIN
 10
1.000000000000000E+20
 20
1.000000000000000E+20
 30
1.000000000000000E+20
  9
$PEXTMAX
 10
-1.000000000000000E+20
 20
-1.000000000000000E+20
 30
-1.000000000000000E+20
  9
$PLIMMIN
 10
0.0
 20
0.0
  9
$PLIMMAX
 10
12.0
 20
9.0
  9
$UNITMODE
 70
     0
  9
$VISRETAIN
 70
     0
  9
$PLINEGEN
 70
     0
  9
$PSLTSCALE
 70
     0
  9
$TREEDEPTH
 70
  3020
  9
$CMLSTYLE
  2
STANDARD
  9
$CMLJUST
 70
     0
  9
$CMLSCALE
 40
1.0
  9
$PROXYGRAPHICS
 70
     1
  9
$MEASUREMENT
 70
     0
  9
$CELWEIGHT
370
    -1
  9
$ENDCAPS
280
     0
  9
$JOINSTYLE
280
     0
  9
$LWDISPLAY
290
     0
  9
$INSUNITS
 70
     0
  9
$HYPERLINKBASE
  1

  9
$STYLESHEET
  1

  9
$XEDIT
290
     1
  9
$CEPSNTYPE
380
     0
  9
$PSTYLEMODE
290
     1
  9
$FINGERPRINTGUID
  2
{8B4DC37F-BFBE-4BF0-85F7-8850E09F31F0}
  9
$VERSIONGUID
  2
{E6F484C2-C2C4-43C6-BA2E-91BEA75167E5}
  9
$EXTNAMES
290
     1
  9
$PSVPSCALE
 40
0.0
  9
$OLESTARTUP
290
     0
  0
ENDSEC
  0
SECTION
  2
CLASSES
  0
CLASS
  1
LWPOLYLINE
  2
AcDbPolyline
  3
AutoCAD 2000
 90
    32768
280
     0
281
     1
  0
CLASS
  1
HATCH
  2
AcDbHatch
  3
AutoCAD 2000
 90
    32768
280
     0
281
     1
  0
CLASS
  1
ACDBDICTIONARYWDFLT
  2
AcDbDictionaryWithDefault
  3
AutoCAD 2000
 90
        0
280
     0
281
     0
  0
CLASS
  1
ACDBPLACEHOLDER
  2
AcDbPlaceHolder
  3
AutoCAD 2000
 90
        0
280
     0
281
     0
  0
CLASS
  1
LAYOUT
  2
AcDbLayout
  3
AutoCAD 2000
 90
        0
280
     0
281
     0
  0
CLASS
  1
DICTIONARYVAR
  2
AcDbDictionaryVar
  3
AutoCAD 2000
 90
        0
280
     0
281
     0
  0
ENDSEC
  0
SECTION
  2
TABLES
  0
TABLE
  2
VPORT
  5
8
330
0
100
AcDbSymbolTable
 70
     3
  0
VPORT
  5
5E9
330
8
100
AcDbSymbolTableRecord
100
AcDbViewportTableRecord
  2
*Active
 70
     0
 10
0.0
 20
0.0
 11
1.0
 21
1.0
 12
111.22324619147
 22
116.5417971672866
 13
0.0
 23
0.0
 14
1.0
 24
1.0
 15
0.0
 25
0.0
 16
0.0
 26
0.0
 36
1.0
 17
0.0
 27
0.0
 37
0.0
 40
255.8089995879829
 41
1.786259541984732
 42
50.0
 43
0.0
 44
0.0
 50
0.0
 51
0.0
 71
     0
 72
  4800
 73
     1
 74
     0
 75
     0
 76
     0
 77
     0
 78
     0
281
     0
 65
     1
110
0.0
120
0.0
130
0.0
111
1.0
121
0.0
131
0.0
112
0.0
122
1.0
132
0.0
 79
     0
146
0.0
  0
ENDTAB
  0
TABLE
  2
LTYPE
  5
5
330
0
100
AcDbSymbolTable
 70
     3
  0
LTYPE
  5
12
330
5
100
AcDbSymbolTableRecord
100
AcDbLinetypeTableRecord
  2
BYBLOCK
 70
     0
  3

 72
    65
 73
     0
 40
0.0
  0
LTYPE
  5
13
330
5
100
AcDbSymbolTableRecord
100
AcDbLinetypeTableRecord
  2
BYLAYER
 70
     0
  3

 72
    65
 73
     0
 40
0.0
  0
LTYPE
  5
14
330
5
100
AcDbSymbolTableRecord
100
AcDbLinetypeTableRecord
  2
CONTINUOUS
 70
     0
  3
Solid line
 72
    65
 73
     0
 40
0.0
  0
LTYPE
  5
6D
330
5
100
AcDbSymbolTableRecord
100
AcDbLinetypeTableRecord
  2
HIDDEN
 70
     0
  3
Hidden __ __ __ __ __ __ __ __ __ __ __ __ __ _
 72
    65
 73
     2
 40
0.375
 49
0.25
 74
     0
 49
-0.125
 74
     0
  0
LTYPE
  5
205
330
5
100
AcDbSymbolTableRecord
100
AcDbLinetypeTableRecord
  2
CENTER
 70
     0
  3
Center ____ _ ____ _ ____ _ ____ _ ____ _ ____
 72
    65
 73
     4
 40
2.0
 49
1.25
 74
     0
 49
-0.25
 74
     0
 49
0.25
 74
     0
 49
-0.25
 74
     0
  0
ENDTAB
  0
TABLE
  2
LAYER
  5
2
330
0
100
AcDbSymbolTable
 70
     6
  0
LAYER
  5
F
330
2
100
AcDbSymbolTableRecord
100
AcDbLayerTableRecord
  2
0
 70
     0
 62
     7
  6
CONTINUOUS
370
    -3
390
5DE
  0
LAYER
  5
21
330
2
100
AcDbSymbolTableRecord
100
AcDbLayerTableRecord
  2
DEFPOINTS
 70
     0
 62
     7
  6
CONTINUOUS
290
     0
370
    -3
390
5DE
  0
LAYER
  5
54C
330
2
100
AcDbSymbolTableRecord
100
AcDbLayerTableRecord
  2
BASE
 70
     0
 62
     7
  6
CONTINUOUS
370
    -3
390
5DE
  0
LAYER
  5
5C1
330
2
100
AcDbSymbolTableRecord
100
AcDbLayerTableRecord
  2
WEDGE-PROFILE
 70
     0
 62
     7
  6
CONTINUOUS
370
    -3
390
5DE
  0
LAYER
  5
5C2
330
2
100
AcDbSymbolTableRecord
100
AcDbLayerTableRecord
  2
AL-PLATE
 70
     0
 62
     5
  6
CONTINUOUS
370
    -3
390
5DE
  0
LAYER
  5
5C3
330
2
100
AcDbSymbolTableRecord
100
AcDbLayerTableRecord
  2
DIM-WEDGE-PROFILE
 70
     0
 62
     7
  6
CONTINUOUS
370
    -3
390
5DE
  0
ENDTAB
  0
TABLE
  2
STYLE
  5
3
330
0
100
AcDbSymbolTable
 70
     3
  0
STYLE
  5
10
330
3
100
AcDbSymbolTableRecord
100
AcDbTextStyleTableRecord
  2
STANDARD
 70
     0
 40
0.0
 41
1.0
 50
0.0
 71
     0
 42
0.2
  3
txt
  4

  0
STYLE
  5
1E
330
3
100
AcDbSymbolTableRecord
100
AcDbTextStyleTableRecord
  2
ROMANS
 70
     0
 40
0.0
 41
1.0
 50
0.0
 71
     0
 42
0.2
  3
SIMPLEX
  4

  0
STYLE
  5
6C
330
3
100
AcDbSymbolTableRecord
100
AcDbTextStyleTableRecord
  2

 70
     1
 40
0.0
 41
1.0
 50
0.0
 71
     0
 42
0.2
  3
ltypeshp.shx
  4

  0
ENDTAB
  0
TABLE
  2
VIEW
  5
6
330
0
100
AcDbSymbolTable
 70
     0
  0
ENDTAB
  0
TABLE
  2
UCS
  5
7
330
0
100
AcDbSymbolTable
 70
     0
  0
ENDTAB
  0
TABLE
  2
APPID
  5
9
330
0
100
AcDbSymbolTable
 70
     1
  0
APPID
  5
11
330
9
100
AcDbSymbolTableRecord
100
AcDbRegAppTableRecord
  2
ACAD
 70
     0
  0
ENDTAB
  0
TABLE
  2
DIMSTYLE
  5
A
330
0
100
AcDbSymbolTable
 70
     5
100
AcDbDimStyleTable
 71
     0
  0
DIMSTYLE
105
32
330
A
100
AcDbSymbolTableRecord
100
AcDbDimStyleTableRecord
  2
STANDARD
 70
     0
174
     1
271
     3
272
     1
340
10
  0
DIMSTYLE
105
342
330
A
100
AcDbSymbolTableRecord
100
AcDbDimStyleTableRecord
  2
HALF
 70
     0
 41
0.09
140
0.09
147
0.045
174
     1
271
     3
272
     1
340
10
  0
DIMSTYLE
105
50F
330
A
100
AcDbSymbolTableRecord
100
AcDbDimStyleTableRecord
  2
QUARTER
 70
     0
 41
0.045
140
0.045
147
0.0225
174
     1
271
     3
272
     1
340
10
  0
DIMSTYLE
105
510
330
A
100
AcDbSymbolTableRecord
100
AcDbDimStyleTableRecord
  2
2X
 70
     0
 41
0.36
140
0.36
147
0.18
174
     1
271
     3
272
     1
340
10
  0
DIMSTYLE
105
5C5
102
{ACAD_REACTORS
330
5CD
330
5CA
330
5D3
330
5D0
330
5C8
330
5C7
102
}
330
A
100
AcDbSymbolTableRecord
100
AcDbDimStyleTableRecord
  2
METRIC-IMPERIAL
 70
     0
 40
25.4
143
0.0393701
146
25.4
170
     1
171
     3
174
     1
271
     2
272
     1
340
1E
  0
ENDTAB
  0
TABLE
  2
BLOCK_RECORD
  5
1
330
0
100
AcDbSymbolTable
 70
     7
  0
BLOCK_RECORD
  5
18
330
1
100
AcDbSymbolTableRecord
100
AcDbBlockTableRecord
  2
*MODEL_SPACE
340
5E1
  0
BLOCK_RECORD
  5
15
330
1
100
AcDbSymbolTableRecord
100
AcDbBlockTableRecord
  2
*PAPER_SPACE
340
5E2
  0
BLOCK_RECORD
  5
571
330
1
100
AcDbSymbolTableRecord
100
AcDbBlockTableRecord
  2
*D0
340
0
  0
BLOCK_RECORD
  5
580
330
1
100
AcDbSymbolTableRecord
100
AcDbBlockTableRecord
  2
*D1
340
0
  0
BLOCK_RECORD
  5
58D
330
1
100
AcDbSymbolTableRecord
100
AcDbBlockTableRecord
  2
*D2
340
0
  0
BLOCK_RECORD
  5
59A
330
1
100
AcDbSymbolTableRecord
100
AcDbBlockTableRecord
  2
*D3
340
0
  0
BLOCK_RECORD
  5
5A7
330
1
100
AcDbSymbolTableRecord
100
AcDbBlockTableRecord
  2
*D4
340
0
  0
BLOCK_RECORD
  5
5B4
330
1
100
AcDbSymbolTableRecord
100
AcDbBlockTableRecord
  2
*D5
340
0
  0
BLOCK_RECORD
  5
5C6
330
1
100
AcDbSymbolTableRecord
100
AcDbBlockTableRecord
  2
A$C4FA63D65
340
0
102
{BLKREFS
331
5D9
102
}
  0
ENDTAB
  0
ENDSEC
  0
SECTION
  2
BLOCKS
  0
BLOCK
  5
24
330
18
100
AcDbEntity
  8
0
100
AcDbBlockBegin
  2
*MODEL_SPACE
 70
     0
 10
0.0
 20
0.0
 30
0.0
  3
*MODEL_SPACE
  1

  0
ENDBLK
  5
25
330
18
100
AcDbEntity
  8
0
100
AcDbBlockEnd
  0
BLOCK
  5
22
330
15
100
AcDbEntity
 67
     1
  8
0
100
AcDbBlockBegin
  2
*PAPER_SPACE
 70
     0
 10
0.0
 20
0.0
 30
0.0
  3
*PAPER_SPACE
  1

  0
ENDBLK
  5
23
330
15
100
AcDbEntity
 67
     1
  8
0
100
AcDbBlockEnd
  0
BLOCK
  5
57E
330
571
100
AcDbEntity
  8
0
100
AcDbBlockBegin
  2
*D0
 70
     1
 10
0.0
 20
0.0
 30
0.0
  3
*D0
  1

  0
LINE
  5
572
330
571
100
AcDbEntity
  8
0
  6
ByBlock
 62
     0
100
AcDbLine
 10
256.3032138945012
 20
-114.4698610267098
 30
0.0
 11
257.7191493317383
 21
-90.15918843413572
 31
0.0
  0
LINE
  5
573
330
571
100
AcDbEntity
  8
0
  6
ByBlock
 62
     0
100
AcDbLine
 10
349.1699305688322
 20
-114.4698610267099
 30
0.0
 11
347.7539951315944
 21
-90.15918843413583
 31
0.0
  0
ARC
  5
574
330
571
100
AcDbEntity
  8
0
  6
ByBlock
 62
     0
100
AcDbCircle
 10
302.736572231667
 20
682.7601130396173
 30
0.0
 40
778.8011746990844
100
AcDbArc
 50
267.0030255328767
 51
269.3680155553277
  0
ARC
  5
575
330
571
100
AcDbEntity
  8
0
  6
ByBlock
 62
     0
100
AcDbCircle
 10
302.736572231667
 20
682.7601130396173
 30
0.0
 40
778.8011746990844
100
AcDbArc
 50
270.8896853801716
 51
272.9969744671232
  0
SOLID
  5
576
330
571
100
AcDbEntity
  8
0
  6
ByBlock
 62
     0
100
AcDbTrace
 10
261.9762634515311
 20
-95.73673053907883
 30
0.0
 11
262.0604099896064
 21
-94.2150553568767
 31
0.0
 12
257.4533111739623
 22
-94.72345333375212
 32
0.0
 13
257.4533111739623
 23
-94.72345333375212
 33
0.0
  0
SOLID
  5
577
330
571
100
AcDbEntity
  8
0
  6
ByBlock
 62
     0
100
AcDbTrace
 10
343.4127344737265
 20
-94.21505535687677
 30
0.0
 11
343.4968810118018
 21
-95.73673053907892
 31
0.0
 12
348.0198332893706
 22
-94.72345333375221
 32
0.0
 13
348.0198332893706
 23
-94.72345333375221
 33
0.0
  0
MTEXT
  5
578
330
571
100
AcDbEntity
  8
0
  6
ByBlock
 62
     0
100
AcDbMText
 10
304.4878349703622
 20
-96.03909265559522
 30
0.0
 40
4.571999999999999
 41
0.0
 71
     5
 72
     1
  1
\A1;6.67°
  7
ROMANS
 73
     1
 44
1.0
  0
POINT
  5
579
330
571
100
AcDbEntity
  8
DEFPOINTS
  6
ByBlock
 62
     0
100
AcDbPoint
 10
287.6345802689406
 20
-95.89462402388477
 30
0.0
  0
POINT
  5
57A
330
571
100
AcDbEntity
  8
DEFPOINTS
  6
ByBlock
 62
     0
100
AcDbPoint
 10
250.3865722316667
 20
-216.0546752279656
 30
0.0
  0
POINT
  5
57B
330
571
100
AcDbEntity
  8
DEFPOINTS
  6
ByBlock
 62
     0
100
AcDbPoint
 10
355.0865722316668
 20
-216.0546752279655
 30
0.0
  0
POINT
  5
57C
330
571
100
AcDbEntity
  8
DEFPOINTS
  6
ByBlock
 62
     0
100
AcDbPoint
 10
349.2622354847267
 20
-116.0546752279655
 30
0.0
  0
POINT
  5
57D
330
571
100
AcDbEntity
  8
DEFPOINTS
  6
ByBlock
 62
     0
100
AcDbPoint
 10
256.2109089786067
 20
-116.0546752279655
 30
0.0
  0
ENDBLK
  5
57F
330
571
100
AcDbEntity
  8
0
100
AcDbBlockEnd
  0
BLOCK
  5
58B
330
580
100
AcDbEntity
  8
0
100
AcDbBlockBegin
  2
*D1
 70
     1
 10
0.0
 20
0.0
 30
0.0
  3
*D1
  1

  0
LINE
  5
581
330
580
100
AcDbEntity
  8
0
  6
ByBlock
 62
     0
100
AcDbLine
 10
256.2109089786067
 20
-114.4671752279655
 30
0.0
 11
256.2109089786067
 21
-79.3938434016776
 31
0.0
  0
LINE
  5
582
330
580
100
AcDbEntity
  8
0
  6
ByBlock
 62
     0
100
AcDbLine
 10
349.2622354847267
 20
-114.4671752279655
 30
0.0
 11
349.2622354847267
 21
-79.3938434016776
 31
0.0
  0
LINE
  5
583
330
580
100
AcDbEntity
  8
0
  6
ByBlock
 62
     0
100
AcDbLine
 10
260.7829089786067
 20
-83.96584340167761
 30
0.0
 11
276.3931436602382
 21
-83.96584340167761
 31
0.0
  0
LINE
  5
584
330
580
100
AcDbEntity
  8
0
  6
ByBlock
 62
     0
100
AcDbLine
 10
344.6902354847267
 20
-83.96584340167761
 30
0.0
 11
329.0800008030952
 21
-83.96584340167761
 31
0.0
  0
SOLID
  5
585
330
580
100
AcDbEntity
  8
0
  6
ByBlock
 62
     0
100
AcDbTrace
 10
260.7829089786067
 20
-83.20384340167761
 30
0.0
 11
260.7829089786067
 21
-84.72784340167761
 31
0.0
 12
256.2109089786067
 22
-83.96584340167761
 32
0.0
 13
256.2109089786067
 23
-83.96584340167761
 33
0.0
  0
SOLID
  5
586
330
580
100
AcDbEntity
  8
0
  6
ByBlock
 62
     0
100
AcDbTrace
 10
344.6902354847267
 20
-83.20384340167761
 30
0.0
 11
344.6902354847267
 21
-84.72784340167761
 31
0.0
 12
349.2622354847267
 22
-83.96584340167761
 32
0.0
 13
349.2622354847267
 23
-83.96584340167761
 33
0.0
  0
MTEXT
  5
587
330
580
100
AcDbEntity
  8
0
  6
ByBlock
 62
     0
100
AcDbMText
 10
302.7365722316667
 20
-83.96584340167761
 30
0.0
 40
4.571999999999999
 41
0.0
 71
     5
 72
     1
  1
\A1;93.05 [3.663]
  7
ROMANS
 73
     1
 44
1.0
  0
POINT
  5
588
330
580
100
AcDbEntity
  8
DEFPOINTS
  6
ByBlock
 62
     0
100
AcDbPoint
 10
256.2109089786067
 20
-116.0546752279655
 30
0.0
  0
POINT
  5
589
330
580
100
AcDbEntity
  8
DEFPOINTS
  6
ByBlock
 62
     0
100
AcDbPoint
 10
349.2622354847267
 20
-116.0546752279655
 30
0.0
  0
POINT
  5
58A
330
580
100
AcDbEntity
  8
DEFPOINTS
  6
ByBlock
 62
     0
100
AcDbPoint
 10
349.2622354847267
 20
-83.96584340167761
 30
0.0
  0
ENDBLK
  5
58C
330
580
100
AcDbEntity
  8
0
100
AcDbBlockEnd
  0
BLOCK
  5
598
330
58D
100
AcDbEntity
  8
0
100
AcDbBlockBegin
  2
*D2
 70
     1
 10
0.0
 20
0.0
 30
0.0
  3
*D2
  1

  0
LINE
  5
58E
330
58D
100
AcDbEntity
  8
0
  6
ByBlock
 62
     0
100
AcDbLine
 10
350.8497354847267
 20
-116.0546752279655
 30
0.0
 11
393.0539329379202
 21
-116.0546752279655
 31
0.0
  0
LINE
  5
58F
330
58D
100
AcDbEntity
  8
0
  6
ByBlock
 62
     0
100
AcDbLine
 10
356.6740722316667
 20
-216.0546752279655
 30
0.0
 11
393.0539329379202
 21
-216.0546752279655
 31
0.0
  0
LINE
  5
590
330
58D
100
AcDbEntity
  8
0
  6
ByBlock
 62
     0
100
AcDbLine
 10
388.4819329379201
 20
-120.6266752279656
 30
0.0
 11
388.4819329379201
 21
-160.285246656537
 31
0.0
  0
LINE
  5
591
330
58D
100
AcDbEntity
  8
0
  6
ByBlock
 62
     0
100
AcDbLine
 10
388.4819329379201
 20
-211.4826752279655
 30
0.0
 11
388.4819329379201
 21
-171.8241037993941
 31
0.0
  0
SOLID
  5
592
330
58D
100
AcDbEntity
  8
0
  6
ByBlock
 62
     0
100
AcDbTrace
 10
387.7199329379202
 20
-120.6266752279656
 30
0.0
 11
389.2439329379202
 21
-120.6266752279656
 31
0.0
 12
388.4819329379201
 22
-116.0546752279655
 32
0.0
 13
388.4819329379201
 23
-116.0546752279655
 33
0.0
  0
SOLID
  5
593
330
58D
100
AcDbEntity
  8
0
  6
ByBlock
 62
     0
100
AcDbTrace
 10
387.7199329379202
 20
-211.4826752279655
 30
0.0
 11
389.2439329379202
 21
-211.4826752279655
 31
0.0
 12
388.4819329379201
 22
-216.0546752279655
 32
0.0
 13
388.4819329379201
 23
-216.0546752279655
 33
0.0
  0
MTEXT
  5
594
330
58D
100
AcDbEntity
  8
0
  6
ByBlock
 62
     0
100
AcDbMText
 10
388.4819329379201
 20
-166.0546752279655
 30
0.0
 40
4.571999999999999
 41
0.0
 71
     5
 72
     1
  1
\A1;100.00 [3.937]
  7
ROMANS
 73
     1
 44
1.0
  0
POINT
  5
595
330
58D
100
AcDbEntity
  8
DEFPOINTS
  6
ByBlock
 62
     0
100
AcDbPoint
 10
349.2622354847267
 20
-116.0546752279655
 30
0.0
  0
POINT
  5
596
330
58D
100
AcDbEntity
  8
DEFPOINTS
  6
ByBlock
 62
     0
100
AcDbPoint
 10
355.0865722316667
 20
-216.0546752279655
 30
0.0
  0
POINT
  5
597
330
58D
100
AcDbEntity
  8
DEFPOINTS
  6
ByBlock
 62
     0
100
AcDbPoint
 10
388.4819329379201
 20
-216.0546752279655
 30
0.0
  0
ENDBLK
  5
599
330
58D
100
AcDbEntity
  8
0
100
AcDbBlockEnd
  0
BLOCK
  5
5A5
330
59A
100
AcDbEntity
  8
0
100
AcDbBlockBegin
  2
*D3
 70
     1
 10
0.0
 20
0.0
 30
0.0
  3
*D3
  1

  0
LINE
  5
59B
330
59A
100
AcDbEntity
  8
0
  6
ByBlock
 62
     0
100
AcDbLine
 10
254.6234089786067
 20
-116.0546752279655
 30
0.0
 11
213.1860195341697
 21
-116.0546752279655
 31
0.0
  0
LINE
  5
59C
330
59A
100
AcDbEntity
  8
0
  6
ByBlock
 62
     0
100
AcDbLine
 10
248.0593814648054
 20
-228.7546752279655
 30
0.0
 11
213.1860195341697
 21
-228.7546752279655
 31
0.0
  0
LINE
  5
59D
330
59A
100
AcDbEntity
  8
0
  6
ByBlock
 62
     0
100
AcDbLine
 10
217.7580195341697
 20
-120.6266752279656
 30
0.0
 11
217.7580195341697
 21
-166.635246656537
 31
0.0
  0
LINE
  5
59E
330
59A
100
AcDbEntity
  8
0
  6
ByBlock
 62
     0
100
AcDbLine
 10
217.7580195341697
 20
-224.1826752279655
 30
0.0
 11
217.7580195341697
 21
-178.1741037993941
 31
0.0
  0
SOLID
  5
59F
330
59A
100
AcDbEntity
  8
0
  6
ByBlock
 62
     0
100
AcDbTrace
 10
216.9960195341697
 20
-120.6266752279656
 30
0.0
 11
218.5200195341697
 21
-120.6266752279656
 31
0.0
 12
217.7580195341697
 22
-116.0546752279655
 32
0.0
 13
217.7580195341697
 23
-116.0546752279655
 33
0.0
  0
SOLID
  5
5A0
330
59A
100
AcDbEntity
  8
0
  6
ByBlock
 62
     0
100
AcDbTrace
 10
216.9960195341697
 20
-224.1826752279655
 30
0.0
 11
218.5200195341697
 21
-224.1826752279655
 31
0.0
 12
217.7580195341697
 22
-228.7546752279655
 32
0.0
 13
217.7580195341697
 23
-228.7546752279655
 33
0.0
  0
MTEXT
  5
5A1
330
59A
100
AcDbEntity
  8
0
  6
ByBlock
 62
     0
100
AcDbMText
 10
217.7580195341697
 20
-172.4046752279655
 30
0.0
 40
4.571999999999999
 41
0.0
 71
     5
 72
     1
  1
\A1;112.70 [4.437]
  7
ROMANS
 73
     1
 44
1.0
  0
POINT
  5
5A2
330
59A
100
AcDbEntity
  8
DEFPOINTS
  6
ByBlock
 62
     0
100
AcDbPoint
 10
256.2109089786067
 20
-116.0546752279655
 30
0.0
  0
POINT
  5
5A3
330
59A
100
AcDbEntity
  8
DEFPOINTS
  6
ByBlock
 62
     0
100
AcDbPoint
 10
249.6468814648054
 20
-228.7546752279655
 30
0.0
  0
POINT
  5
5A4
330
59A
100
AcDbEntity
  8
DEFPOINTS
  6
ByBlock
 62
     0
100
AcDbPoint
 10
217.7580195341697
 20
-228.7546752279655
 30
0.0
  0
ENDBLK
  5
5A6
330
59A
100
AcDbEntity
  8
0
100
AcDbBlockEnd
  0
BLOCK
  5
5B2
330
5A7
100
AcDbEntity
  8
0
100
AcDbBlockBegin
  2
*D4
 70
     1
 10
0.0
 20
0.0
 30
0.0
  3
*D4
  1

  0
LINE
  5
5A8
330
5A7
100
AcDbEntity
  8
0
  6
ByBlock
 62
     0
100
AcDbLine
 10
250.3865722316669
 20
-214.4671752279655
 30
0.0
 11
250.3865722316669
 21
-201.4640199374952
 31
0.0
  0
LINE
  5
5A9
330
5A7
100
AcDbEntity
  8
0
  6
ByBlock
 62
     0
100
AcDbLine
 10
355.0865722316666
 20
-214.4671752279655
 30
0.0
 11
355.0865722316666
 21
-201.4640199374952
 31
0.0
  0
LINE
  5
5AA
330
5A7
100
AcDbEntity
  8
0
  6
ByBlock
 62
     0
100
AcDbLine
 10
254.9585722316669
 20
-206.0360199374952
 30
0.0
 11
275.0868579459525
 21
-206.0360199374952
 31
0.0
  0
LINE
  5
5AB
330
5A7
100
AcDbEntity
  8
0
  6
ByBlock
 62
     0
100
AcDbLine
 10
350.5145722316666
 20
-206.0360199374952
 30
0.0
 11
330.386286517381
 21
-206.0360199374952
 31
0.0
  0
SOLID
  5
5AC
330
5A7
100
AcDbEntity
  8
0
  6
ByBlock
 62
     0
100
AcDbTrace
 10
254.9585722316669
 20
-205.2740199374952
 30
0.0
 11
254.9585722316669
 21
-206.7980199374952
 31
0.0
 12
250.3865722316669
 22
-206.0360199374952
 32
0.0
 13
250.3865722316669
 23
-206.0360199374952
 33
0.0
  0
SOLID
  5
5AD
330
5A7
100
AcDbEntity
  8
0
  6
ByBlock
 62
     0
100
AcDbTrace
 10
350.5145722316666
 20
-205.2740199374952
 30
0.0
 11
350.5145722316666
 21
-206.7980199374952
 31
0.0
 12
355.0865722316666
 22
-206.0360199374952
 32
0.0
 13
355.0865722316666
 23
-206.0360199374952
 33
0.0
  0
MTEXT
  5
5AE
330
5A7
100
AcDbEntity
  8
0
  6
ByBlock
 62
     0
100
AcDbMText
 10
302.7365722316667
 20
-206.0360199374952
 30
0.0
 40
4.571999999999999
 41
0.0
 71
     5
 72
     1
  1
\A1;104.70 [4.122]
  7
ROMANS
 73
     1
 44
1.0
  0
POINT
  5
5AF
330
5A7
100
AcDbEntity
  8
DEFPOINTS
  6
ByBlock
 62
     0
100
AcDbPoint
 10
250.3865722316669
 20
-216.0546752279655
 30
0.0
  0
POINT
  5
5B0
330
5A7
100
AcDbEntity
  8
DEFPOINTS
  6
ByBlock
 62
     0
100
AcDbPoint
 10
355.0865722316666
 20
-216.0546752279655
 30
0.0
  0
POINT
  5
5B1
330
5A7
100
AcDbEntity
  8
DEFPOINTS
  6
ByBlock
 62
     0
100
AcDbPoint
 10
355.0865722316666
 20
-206.0360199374952
 30
0.0
  0
ENDBLK
  5
5B3
330
5A7
100
AcDbEntity
  8
0
100
AcDbBlockEnd
  0
BLOCK
  5
5BF
330
5B4
100
AcDbEntity
  8
0
100
AcDbBlockBegin
  2
*D5
 70
     1
 10
0.0
 20
0.0
 30
0.0
  3
*D5
  1

  0
LINE
  5
5B5
330
5B4
100
AcDbEntity
  8
0
  6
ByBlock
 62
     0
100
AcDbLine
 10
249.6468814648054
 20
-230.3421752279656
 30
0.0
 11
249.6468814648054
 21
-243.1872396055567
 31
0.0
  0
LINE
  5
5B6
330
5B4
100
AcDbEntity
  8
0
  6
ByBlock
 62
     0
100
AcDbLine
 10
355.8262629985282
 20
-230.3421752279656
 30
0.0
 11
355.8262629985282
 21
-243.1872396055567
 31
0.0
  0
LINE
  5
5B7
330
5B4
100
AcDbEntity
  8
0
  6
ByBlock
 62
     0
100
AcDbLine
 10
254.2188814648054
 20
-238.6152396055567
 30
0.0
 11
275.5222865173811
 21
-238.6152396055567
 31
0.0
  0
LINE
  5
5B8
330
5B4
100
AcDbEntity
  8
0
  6
ByBlock
 62
     0
100
AcDbLine
 10
351.2542629985281
 20
-238.6152396055567
 30
0.0
 11
329.9508579459526
 21
-238.6152396055567
 31
0.0
  0
SOLID
  5
5B9
330
5B4
100
AcDbEntity
  8
0
  6
ByBlock
 62
     0
100
AcDbTrace
 10
254.2188814648054
 20
-237.8532396055567
 30
0.0
 11
254.2188814648054
 21
-239.3772396055567
 31
0.0
 12
249.6468814648054
 22
-238.6152396055567
 32
0.0
 13
249.6468814648054
 23
-238.6152396055567
 33
0.0
  0
SOLID
  5
5BA
330
5B4
100
AcDbEntity
  8
0
  6
ByBlock
 62
     0
100
AcDbTrace
 10
351.2542629985281
 20
-237.8532396055567
 30
0.0
 11
351.2542629985281
 21
-239.3772396055567
 31
0.0
 12
355.8262629985282
 22
-238.6152396055567
 32
0.0
 13
355.8262629985282
 23
-238.6152396055567
 33
0.0
  0
MTEXT
  5
5BB
330
5B4
100
AcDbEntity
  8
0
  6
ByBlock
 62
     0
100
AcDbMText
 10
302.7365722316667
 20
-238.6152396055567
 30
0.0
 40
4.571999999999999
 41
0.0
 71
     5
 72
     1
  1
\A1;106.18 [4.180]
  7
ROMANS
 73
     1
 44
1.0
  0
POINT
  5
5BC
330
5B4
100
AcDbEntity
  8
DEFPOINTS
  6
ByBlock
 62
     0
100
AcDbPoint
 10
249.6468814648054
 20
-228.7546752279656
 30
0.0
  0
POINT
  5
5BD
330
5B4
100
AcDbEntity
  8
DEFPOINTS
  6
ByBlock
 62
     0
100
AcDbPoint
 10
355.8262629985282
 20
-228.7546752279655
 30
0.0
  0
POINT
  5
5BE
330
5B4
100
AcDbEntity
  8
DEFPOINTS
  6
ByBlock
 62
     0
100
AcDbPoint
 10
355.8262629985282
 20
-238.6152396055567
 30
0.0
  0
ENDBLK
  5
5C0
330
5B4
100
AcDbEntity
  8
0
100
AcDbBlockEnd
  0
BLOCK
  5
5D7
330
5C6
100
AcDbEntity
  8
0
100
AcDbBlockBegin
  2
A$C4FA63D65
 70
     0
 10
0.0
 20
0.0
 30
0.0
  3
A$C4FA63D65
  1

  0
DIMENSION
  5
5C7
330
5C6
100
AcDbEntity
  8
DIM-WEDGE-PROFILE
100
AcDbDimension
  2
*D5
 10
163.4319534076872
 20
4.572001801393525
 30
0.0
 11
110.3422626408257
 21
4.572001801393525
 31
0.0
 12
-192.3943095908409
 22
243.1872414069502
 32
0.0
 71
     5
 42
-1.0
  3
METRIC-IMPERIAL
100
AcDbAlignedDimension
 13
57.25257187396448
 23
14.4325661789847
 33
0.0
 14
163.4319534076872
 24
14.43256617898475
 34
0.0
100
AcDbRotatedDimension
  0
DIMENSION
  5
5C8
330
5C6
100
AcDbEntity
  8
DIM-WEDGE-PROFILE
100
AcDbDimension
  2
*D4
 10
162.6922626408256
 20
37.15122146945509
 30
0.0
 11
110.3422626408257
 21
37.15122146945509
 31
0.0
 12
-192.3943095908409
 22
243.1872414069502
 32
0.0
 71
     5
 42
-1.0
  3
METRIC-IMPERIAL
100
AcDbAlignedDimension
 13
57.99226264082597
 23
27.13256617898471
 33
0.0
 14
162.6922626408256
 24
27.13256617898471
 34
0.0
100
AcDbRotatedDimension
  0
HATCH
  5
5C9
330
5C6
100
AcDbEntity
  8
DIM-WEDGE-PROFILE
100
AcDbHatch
 10
0.0
 20
0.0
 30
0.0
210
0.0
220
0.0
230
1.0
  2
ANSI31
 70
     0
 71
     1
 91
        1
 92
        1
 93
        4
 72
     1
 10
57.99226264082597
 20
27.13256617898471
 11
162.6922626408256
 21
27.13256617898471
 72
     1
 10
162.6922626408256
 20
27.13256617898471
 11
163.4319534076872
 21
14.43256617898475
 72
     1
 10
163.4319534076872
 20
14.43256617898475
 11
57.25257187396448
 21
14.4325661789847
 72
     1
 10
57.25257187396448
 20
14.4325661789847
 11
57.99226264082597
 21
27.13256617898471
 97
        4
330
5CB
330
5D5
330
5CC
330
5D2
 75
     0
 76
     1
 52
0.0
 41
25.4
 77
     0
 78
     1
 53
45.0
 43
-192.3943095908409
 44
243.1872414069502
 45
-2.245064030267287
 46
2.245064030267288
 79
     0
 98
        1
 10
-192.3943095908409
 20
243.1872414069502
  0
DIMENSION
  5
5CA
330
5C6
100
AcDbEntity
  8
DIM-WEDGE-PROFILE
100
AcDbDimension
  2
*D1
 10
156.8679258938858
 20
159.2213980052727
 30
0.0
 11
110.3422626408257
 21
159.2213980052727
 31
0.0
 12
-192.3943095908409
 22
243.1872414069502
 32
0.0
 70
   128
 71
     5
 42
-1.0
  3
METRIC-IMPERIAL
100
AcDbAlignedDimension
 13
63.81659938776579
 23
127.1325661789846
 33
0.0
 14
156.8679258938858
 24
127.1325661789846
 34
0.0
100
AcDbRotatedDimension
  0
LINE
  5
5CB
102
{ACAD_REACTORS
330
5C9
102
}
330
5C6
100
AcDbEntity
  8
AL-PLATE
100
AcDbLine
 10
57.99226264082597
 20
27.13256617898471
 30
0.0
 11
162.6922626408256
 21
27.13256617898471
 31
0.0
  0
LINE
  5
5CC
102
{ACAD_REACTORS
330
5C9
102
}
330
5C6
100
AcDbEntity
  8
AL-PLATE
100
AcDbLine
 10
57.25257187396448
 20
14.4325661789847
 30
0.0
 11
163.4319534076872
 21
14.43256617898475
 31
0.0
  0
DIMENSION
  5
5CD
330
5C6
100
AcDbEntity
  8
DIM-WEDGE-PROFILE
100
AcDbDimension
  2
*D0
 10
63.81659938776579
 20
127.1325661789847
 30
0.0
 11
112.0935253795212
 21
147.1481487513551
 31
0.0
 12
-192.3943095908409
 22
243.1872414069502
 32
0.0
 70
   130
 71
     5
 42
-1.0
  3
METRIC-IMPERIAL
100
AcDb2LineAngularDimension
 13
162.6922626408258
 23
27.13256617898469
 33
0.0
 14
156.8679258938858
 24
127.1325661789846
 34
0.0
 15
57.99226264082574
 25
27.13256617898469
 35
0.0
 16
95.24027067809971
 26
147.2926173830655
 36
0.0
1001
ACAD
1000
DSTYLE
1002
{
1070
   179
1070
     2
1002
}
  0
LINE
  5
5CE
330
5C6
100
AcDbEntity
  8
WEDGE-PROFILE
100
AcDbLine
 10
63.81659938776579
 20
127.1325661789846
 30
0.0
 11
156.8679258938858
 21
127.1325661789846
 31
0.0
  0
LINE
  5
5CF
330
5C6
100
AcDbEntity
  8
WEDGE-PROFILE
100
AcDbLine
 10
57.99226264082586
 20
27.13256617898469
 30
0.0
 11
162.6922626408257
 21
27.13256617898471
 31
0.0
  0
DIMENSION
  5
5D0
330
5C6
100
AcDbEntity
  8
DIM-WEDGE-PROFILE
100
AcDbDimension
  2
*D3
 10
25.36370994332878
 20
14.43256617898475
 30
0.0
 11
25.36370994332878
 21
70.78256617898472
 31
0.0
 12
-192.3943095908409
 22
243.1872414069502
 32
0.0
 71
     5
 42
-1.0
  3
METRIC-IMPERIAL
100
AcDbAlignedDimension
 13
63.81659938776579
 23
127.1325661789846
 33
0.0
 14
57.25257187396437
 24
14.43256617898475
 34
0.0
 50
90.0
100
AcDbRotatedDimension
  0
LINE
  5
5D1
330
5C6
100
AcDbEntity
  8
WEDGE-PROFILE
100
AcDbLine
 10
57.99226264082586
 20
27.13256617898469
 30
0.0
 11
63.81659938776579
 21
127.1325661789846
 31
0.0
  0
LINE
  5
5D2
102
{ACAD_REACTORS
330
5C9
102
}
330
5C6
100
AcDbEntity
  8
AL-PLATE
100
AcDbLine
 10
57.25257187396448
 20
14.4325661789847
 30
0.0
 11
57.99226264082597
 21
27.13256617898471
 31
0.0
  0
DIMENSION
  5
5D3
330
5C6
100
AcDbEntity
  8
DIM-WEDGE-PROFILE
100
AcDbDimension
  2
*D2
 10
196.0876233470792
 20
27.13256617898471
 30
0.0
 11
196.0876233470792
 21
77.13256617898472
 31
0.0
 12
-192.3943095908409
 22
243.1872414069502
 32
0.0
 71
     5
 42
-1.0
  3
METRIC-IMPERIAL
100
AcDbAlignedDimension
 13
156.8679258938858
 23
127.1325661789846
 33
0.0
 14
162.6922626408257
 24
27.13256617898471
 34
0.0
 50
90.0
100
AcDbRotatedDimension
  0
LINE
  5
5D4
330
5C6
100
AcDbEntity
  8
WEDGE-PROFILE
100
AcDbLine
 10
162.6922626408257
 20
27.13256617898471
 30
0.0
 11
156.8679258938858
 21
127.1325661789846
 31
0.0
  0
LINE
  5
5D5
102
{ACAD_REACTORS
330
5C9
102
}
330
5C6
100
AcDbEntity
  8
AL-PLATE
100
AcDbLine
 10
163.4319534076872
 20
14.43256617898475
 30
0.0
 11
162.6922626408256
 21
27.13256617898471
 31
0.0
  0
LINE
  5
5D6
330
5C6
100
AcDbEntity
  8
AL-PLATE
100
AcDbLine
 10
162.6922626408256
 20
27.13256617898471
 30
0.0
 11
157.0658303196112
 21
27.13256617898471
 31
0.0
  0
ENDBLK
  5
5D8
330
5C6
100
AcDbEntity
  8
0
100
AcDbBlockEnd
  0
ENDSEC
  0
SECTION
  2
ENTITIES
  0
INSERT
  5
5D9
330
18
100
AcDbEntity
  8
BASE
100
AcDbBlockReference
  2
A$C4FA63D65
 10
0.2798656351641071
 20
56.18394550829162
 30
0.0
  0
ENDSEC
  0
SECTION
  2
OBJECTS
  0
DICTIONARY
  5
C
330
0
100
AcDbDictionary
281
     1
  3
ACAD_GROUP
350
D
  3
ACAD_LAYOUT
350
5DF
  3
ACAD_MLINESTYLE
350
E
  3
ACAD_PLOTSETTINGS
350
5E0
  3
ACAD_PLOTSTYLENAME
350
5DD
  3
AcDbVariableDictionary
350
5E6
  0
DICTIONARY
  5
D
102
{ACAD_REACTORS
330
C
102
}
330
C
100
AcDbDictionary
281
     1
  0
DICTIONARY
  5
5DF
102
{ACAD_REACTORS
330
C
102
}
330
C
100
AcDbDictionary
281
     1
  3
Layout1
350
5E2
  3
Model
350
5E1
  0
DICTIONARY
  5
E
102
{ACAD_REACTORS
330
C
102
}
330
C
100
AcDbDictionary
281
     1
  3
STANDARD
350
1B
  0
DICTIONARY
  5
5E0
102
{ACAD_REACTORS
330
C
102
}
330
C
100
AcDbDictionary
281
     1
  0
ACDBDICTIONARYWDFLT
  5
5DD
102
{ACAD_REACTORS
330
C
102
}
330
C
100
AcDbDictionary
281
     1
  3
Normal
350
5DE
100
AcDbDictionaryWithDefault
340
5DE
  0
DICTIONARY
  5
5E6
102
{ACAD_REACTORS
330
C
102
}
330
C
100
AcDbDictionary
281
     1
  3
DIMASSOC
350
5E7
  0
LAYOUT
  5
5E2
102
{ACAD_REACTORS
330
5DF
102
}
330
5DF
100
AcDbPlotSettings
  1

  2
Symantec Fax Starter Edition
  4

  6

 40
0.0
 41
0.0
 42
0.0
 43
0.0
 44
0.0
 45
0.0
 46
0.0
 47
0.0
 48
0.0
 49
0.0
140
0.0
141
0.0
142
1.0
143
1.0
 70
   688
 72
     0
 73
     0
 74
     5
  7

 75
    16
147
1.0
148
0.0
149
0.0
100
AcDbLayout
  1
Layout1
 70
     0
 71
     1
 10
0.0
 20
0.0
 11
12.0
 21
9.0
 12
0.0
 22
0.0
 32
0.0
 14
1.000000000000000E+20
 24
1.000000000000000E+20
 34
1.000000000000000E+20
 15
-1.000000000000000E+20
 25
-1.000000000000000E+20
 35
-1.000000000000000E+20
146
0.0
 13
0.0
 23
0.0
 33
0.0
 16
1.0
 26
0.0
 36
0.0
 17
0.0
 27
1.0
 37
0.0
 76
     0
330
15
  0
LAYOUT
  5
5E1
102
{ACAD_REACTORS
330
5DF
102
}
330
5DF
100
AcDbPlotSettings
  1

  2
Symantec Fax Starter Edition
  4

  6

 40
0.0
 41
0.0
 42
0.0
 43
0.0
 44
0.0
 45
0.0
 46
0.0
 47
0.0
 48
0.0
 49
0.0
140
0.0
141
0.0
142
1.0
143
1.0
 70
  1712
 72
     0
 73
     0
 74
     0
  7

 75
     0
147
1.0
148
0.0
149
0.0
100
AcDbLayout
  1
Model
 70
     1
 71
     0
 10
0.0
 20
0.0
 11
12.0
 21
9.0
 12
0.0
 22
0.0
 32
0.0
 14
0.0
 24
0.0
 34
0.0
 15
0.0
 25
0.0
 35
0.0
146
0.0
 13
0.0
 23
0.0
 33
0.0
 16
1.0
 26
0.0
 36
0.0
 17
0.0
 27
1.0
 37
0.0
 76
     0
330
18
  0
MLINESTYLE
  5
1B
102
{ACAD_REACTORS
330
E
102
}
330
E
100
AcDbMlineStyle
  2
STANDARD
 70
     0
  3

 62
     0
 51
90.0
 52
90.0
 71
     2
 49
0.5
 62
   256
  6
BYLAYER
 49
-0.5
 62
   256
  6
BYLAYER
  0
ACDBPLACEHOLDER
  5
5DE
102
{ACAD_REACTORS
330
5DD
102
}
330
5DD
  0
DICTIONARYVAR
  5
5E7
102
{ACAD_REACTORS
330
5E6
102
}
330
5E6
100
DictionaryVariables
280
     0
  1
1
  0
ENDSEC
  0
EOF
