  0
SECTION
  2
HEADER
  9
$ACADVER
  1
AC1012
  9
$DWGCODEPAGE
  3
ansi_1252
  9
$INSBASE
 10
0.0
 20
0.0
 30
0.0
  9
$EXTMIN
 10
-0.905934
 20
3.63289
 30
0.0
  9
$EXTMAX
 10
30.928178
 20
20.588568
 30
0.0
  9
$LIMMIN
 10
0.0
 20
0.0
  9
$LIMMAX
 10
12.0
 20
9.0
  9
$ORTHOMODE
 70
     0
  9
$REGENMODE
 70
     1
  9
$FILLMODE
 70
     1
  9
$QTEXTMODE
 70
     0
  9
$MIRRTEXT
 70
     1
  9
$DRAGMODE
 70
     2
  9
$LTSCALE
 40
1.0
  9
$OSMODE
 70
     0
  9
$ATTMODE
 70
     1
  9
$TEXTSIZE
 40
0.2
  9
$TRACEWID
 40
0.05
  9
$TEXTSTYLE
  7
STANDARD
  9
$CLAYER
  8
0
  9
$CELTYPE
  6
BYLAYER
  9
$CECOLOR
 62
   256
  9
$CELTSCALE
 40
1.0
  9
$DELOBJ
 70
     1
  9
$DISPSILH
 70
     0
  9
$DIMSCALE
 40
1.0
  9
$DIMASZ
 40
0.18
  9
$DIMEXO
 40
0.0625
  9
$DIMDLI
 40
0.38
  9
$DIMRND
 40
0.0
  9
$DIMDLE
 40
0.0
  9
$DIMEXE
 40
0.18
  9
$DIMTP
 40
0.0
  9
$DIMTM
 40
0.0
  9
$DIMTXT
 40
0.18
  9
$DIMCEN
 40
0.09
  9
$DIMTSZ
 40
0.0
  9
$DIMTOL
 70
     0
  9
$DIMLIM
 70
     0
  9
$DIMTIH
 70
     1
  9
$DIMTOH
 70
     1
  9
$DIMSE1
 70
     0
  9
$DIMSE2
 70
     0
  9
$DIMTAD
 70
     0
  9
$DIMZIN
 70
     0
  9
$DIMBLK
  1

  9
$DIMASO
 70
     1
  9
$DIMSHO
 70
     1
  9
$DIMPOST
  1

  9
$DIMAPOST
  1

  9
$DIMALT
 70
     0
  9
$DIMALTD
 70
     2
  9
$DIMALTF
 40
25.4
  9
$DIMLFAC
 40
1.0
  9
$DIMTOFL
 70
     0
  9
$DIMTVP
 40
0.0
  9
$DIMTIX
 70
     0
  9
$DIMSOXD
 70
     0
  9
$DIMSAH
 70
     0
  9
$DIMBLK1
  1

  9
$DIMBLK2
  1

  9
$DIMSTYLE
  2
STANDARD
  9
$DIMCLRD
 70
     0
  9
$DIMCLRE
 70
     0
  9
$DIMCLRT
 70
     0
  9
$DIMTFAC
 40
1.0
  9
$DIMGAP
 40
0.09
  9
$DIMJUST
 70
     0
  9
$DIMSD1
 70
     0
  9
$DIMSD2
 70
     0
  9
$DIMTOLJ
 70
     1
  9
$DIMTZIN
 70
     0
  9
$DIMALTZ
 70
     0
  9
$DIMALTTZ
 70
     0
  9
$DIMFIT
 70
     3
  9
$DIMUPT
 70
     0
  9
$DIMUNIT
 70
     2
  9
$DIMDEC
 70
     4
  9
$DIMTDEC
 70
     4
  9
$DIMALTU
 70
     2
  9
$DIMALTTD
 70
     2
  9
$DIMTXSTY
  7
STANDARD
  9
$DIMAUNIT
 70
     0
  9
$LUNITS
 70
     2
  9
$LUPREC
 70
     4
  9
$SKETCHINC
 40
0.1
  9
$FILLETRAD
 40
0.2
  9
$AUNITS
 70
     0
  9
$AUPREC
 70
     0
  9
$MENU
  1
acad
  9
$ELEVATION
 40
0.0
  9
$PELEVATION
 40
0.0
  9
$THICKNESS
 40
0.0
  9
$LIMCHECK
 70
     0
  9
$BLIPMODE
 70
     1
  9
$CHAMFERA
 40
0.0
  9
$CHAMFERB
 40
0.0
  9
$CHAMFERC
 40
0.0
  9
$CHAMFERD
 40
0.0
  9
$SKPOLY
 70
     0
  9
$TDCREATE
 40
2452338.361104282
  9
$TDUPDATE
 40
2452338.457031215
  9
$TDINDWG
 40
0.0959269329
  9
$TDUSRTIMER
 40
0.0959269329
  9
$USRTIMER
 70
     1
  9
$ANGBASE
 50
0.0
  9
$ANGDIR
 70
     0
  9
$PDMODE
 70
     0
  9
$PDSIZE
 40
0.0
  9
$PLINEWID
 40
0.0
  9
$COORDS
 70
     1
  9
$SPLFRAME
 70
     0
  9
$SPLINETYPE
 70
     6
  9
$SPLINESEGS
 70
     8
  9
$ATTDIA
 70
     0
  9
$ATTREQ
 70
     1
  9
$HANDLING
 70
     1
  9
$HANDSEED
  5
17F
  9
$SURFTAB1
 70
     6
  9
$SURFTAB2
 70
     6
  9
$SURFTYPE
 70
     6
  9
$SURFU
 70
     6
  9
$SURFV
 70
     6
  9
$UCSNAME
  2

  9
$UCSORG
 10
0.0
 20
0.0
 30
0.0
  9
$UCSXDIR
 10
1.0
 20
0.0
 30
0.0
  9
$UCSYDIR
 10
0.0
 20
1.0
 30
0.0
  9
$PUCSNAME
  2

  9
$PUCSORG
 10
0.0
 20
0.0
 30
0.0
  9
$PUCSXDIR
 10
1.0
 20
0.0
 30
0.0
  9
$PUCSYDIR
 10
0.0
 20
1.0
 30
0.0
  9
$USERI1
 70
     0
  9
$USERI2
 70
     0
  9
$USERI3
 70
     0
  9
$USERI4
 70
     0
  9
$USERI5
 70
     0
  9
$USERR1
 40
0.0
  9
$USERR2
 40
0.0
  9
$USERR3
 40
0.0
  9
$USERR4
 40
0.0
  9
$USERR5
 40
0.0
  9
$WORLDVIEW
 70
     1
  9
$SHADEDGE
 70
     3
  9
$SHADEDIF
 70
    70
  9
$TILEMODE
 70
     1
  9
$MAXACTVP
 70
    16
  9
$PINSBASE
 10
0.0
 20
0.0
 30
0.0
  9
$PLIMCHECK
 70
     0
  9
$PEXTMIN
 10
1.000000E+20
 20
1.000000E+20
 30
1.000000E+20
  9
$PEXTMAX
 10
-1.000000E+20
 20
-1.000000E+20
 30
-1.000000E+20
  9
$PLIMMIN
 10
0.0
 20
0.0
  9
$PLIMMAX
 10
12.0
 20
9.0
  9
$UNITMODE
 70
     0
  9
$VISRETAIN
 70
     0
  9
$PLINEGEN
 70
     0
  9
$PSLTSCALE
 70
     1
  9
$TREEDEPTH
 70
  3020
  9
$PICKSTYLE
 70
     1
  9
$CMLSTYLE
  2
STANDARD
  9
$CMLJUST
 70
     0
  9
$CMLSCALE
 40
1.0
  9
$SAVEIMAGES
 70
     0
  0
ENDSEC
  0
SECTION
  2
CLASSES
  0
ENDSEC
  0
SECTION
  2
TABLES
  0
TABLE
  2
VPORT
  5
8
100
AcDbSymbolTable
 70
     4
  0
VPORT
  5
17E
100
AcDbSymbolTableRecord
100
AcDbViewportTableRecord
  2
*ACTIVE
 70
     0
 10
0.0
 20
0.0
 11
1.0
 21
1.0
 12
14.463845
 22
10.426623
 13
0.0
 23
0.0
 14
1.0
 24
1.0
 15
0.0
 25
0.0
 16
0.0
 26
0.0
 36
1.0
 17
0.0
 27
0.0
 37
0.0
 40
12.508703
 41
1.782051
 42
50.0
 43
0.0
 44
0.0
 50
0.0
 51
0.0
 71
     0
 72
   100
 73
     1
 74
     1
 75
     0
 76
     0
 77
     0
 78
     0
  0
ENDTAB
  0
TABLE
  2
LTYPE
  5
5
100
AcDbSymbolTable
 70
     1
  0
LTYPE
  5
14
100
AcDbSymbolTableRecord
100
AcDbLinetypeTableRecord
  2
BYBLOCK
 70
     0
  3

 72
    65
 73
     0
 40
0.0
  0
LTYPE
  5
15
100
AcDbSymbolTableRecord
100
AcDbLinetypeTableRecord
  2
BYLAYER
 70
     0
  3

 72
    65
 73
     0
 40
0.0
  0
LTYPE
  5
16
100
AcDbSymbolTableRecord
100
AcDbLinetypeTableRecord
  2
CONTINUOUS
 70
     0
  3
Solid line
 72
    65
 73
     0
 40
0.0
  0
ENDTAB
  0
TABLE
  2
LAYER
  5
2
100
AcDbSymbolTable
 70
     2
  0
LAYER
  5
F
100
AcDbSymbolTableRecord
100
AcDbLayerTableRecord
  2
0
 70
     0
 62
     7
  6
CONTINUOUS
  0
LAYER
  5
9E
100
AcDbSymbolTableRecord
100
AcDbLayerTableRecord
  2
DEFPOINTS
 70
    64
 62
     7
  6
CONTINUOUS
  0
ENDTAB
  0
TABLE
  2
STYLE
  5
3
100
AcDbSymbolTable
 70
     1
  0
STYLE
  5
10
100
AcDbSymbolTableRecord
100
AcDbTextStyleTableRecord
  2
STANDARD
 70
     0
 40
0.0
 41
1.0
 50
0.0
 71
     0
 42
0.2
  3
txt
  4

  0
ENDTAB
  0
TABLE
  2
VIEW
  5
6
100
AcDbSymbolTable
 70
     0
  0
ENDTAB
  0
TABLE
  2
UCS
  5
7
100
AcDbSymbolTable
 70
     0
  0
ENDTAB
  0
TABLE
  2
APPID
  5
9
100
AcDbSymbolTable
 70
     1
  0
APPID
  5
11
100
AcDbSymbolTableRecord
100
AcDbRegAppTableRecord
  2
ACAD
 70
     0
  0
ENDTAB
  0
TABLE
  2
DIMSTYLE
  5
A
100
AcDbSymbolTable
 70
     1
  0
DIMSTYLE
105
1D
100
AcDbSymbolTableRecord
100
AcDbDimStyleTableRecord
  2
STANDARD
 70
     0
  3

  4

  5

  6

  7

 40
1.0
 41
0.18
 42
0.0625
 43
0.38
 44
0.18
 45
0.0
 46
0.0
 47
0.0
 48
0.0
140
0.18
141
0.09
142
0.0
143
25.4
144
1.0
145
0.0
146
1.0
147
0.09
 71
     0
 72
     0
 73
     1
 74
     1
 75
     0
 76
     0
 77
     0
 78
     0
170
     0
171
     2
172
     0
173
     0
174
     0
175
     0
176
     0
177
     0
178
     0
270
     2
271
     4
272
     4
273
     2
274
     2
340
10
275
     0
280
     0
281
     0
282
     0
283
     1
284
     0
285
     0
286
     0
287
     3
288
     0
  0
ENDTAB
  0
TABLE
  2
BLOCK_RECORD
  5
1
100
AcDbSymbolTable
 70
     8
  0
BLOCK_RECORD
  5
1A
100
AcDbSymbolTableRecord
100
AcDbBlockTableRecord
  2
*MODEL_SPACE
  0
BLOCK_RECORD
  5
17
100
AcDbSymbolTableRecord
100
AcDbBlockTableRecord
  2
*PAPER_SPACE
  0
BLOCK_RECORD
  5
95
100
AcDbSymbolTableRecord
100
AcDbBlockTableRecord
  2
*D0
  0
BLOCK_RECORD
  5
F5
100
AcDbSymbolTableRecord
100
AcDbBlockTableRecord
  2
*D1
  0
BLOCK_RECORD
  5
103
100
AcDbSymbolTableRecord
100
AcDbBlockTableRecord
  2
*D2
  0
BLOCK_RECORD
  5
111
100
AcDbSymbolTableRecord
100
AcDbBlockTableRecord
  2
*D3
  0
BLOCK_RECORD
  5
120
100
AcDbSymbolTableRecord
100
AcDbBlockTableRecord
  2
*D4
  0
BLOCK_RECORD
  5
12E
100
AcDbSymbolTableRecord
100
AcDbBlockTableRecord
  2
*D5
  0
BLOCK_RECORD
  5
147
100
AcDbSymbolTableRecord
100
AcDbBlockTableRecord
  2
*D6
  0
BLOCK_RECORD
  5
156
100
AcDbSymbolTableRecord
100
AcDbBlockTableRecord
  2
*D7
  0
ENDTAB
  0
ENDSEC
  0
SECTION
  2
BLOCKS
  0
BLOCK
  5
1B
100
AcDbEntity
  8
0
100
AcDbBlockBegin
  2
*MODEL_SPACE
 70
     0
 10
0.0
 20
0.0
 30
0.0
  3
*MODEL_SPACE
  1

  0
ENDBLK
  5
1C
100
AcDbEntity
  8
0
100
AcDbBlockEnd
  0
BLOCK
  5
18
100
AcDbEntity
 67
     1
  8
0
100
AcDbBlockBegin
  2
*PAPER_SPACE
 70
     0
 10
0.0
 20
0.0
 30
0.0
  3
*PAPER_SPACE
  1

  0
ENDBLK
  5
19
100
AcDbEntity
 67
     1
  8
0
100
AcDbBlockEnd
  0
BLOCK
  5
96
100
AcDbEntity
  8
0
100
AcDbBlockBegin
  2
*D0
 70
    65
 10
0.0
 20
0.0
 30
0.0
  3
*D0
  1

  0
LINE
  5
97
100
AcDbEntity
  8
0
  6
BYBLOCK
 62
     0
100
AcDbLine
 10
25.646514
 20
7.740251
 30
0.0
 11
25.646514
 21
6.935778
 31
0.0
  0
LINE
  5
98
100
AcDbEntity
  8
0
  6
BYBLOCK
 62
     0
100
AcDbLine
 10
23.026514
 20
8.219251
 30
0.0
 11
23.026514
 21
6.935778
 31
0.0
  0
LINE
  5
99
100
AcDbEntity
  8
0
  6
BYBLOCK
 62
     0
100
AcDbLine
 10
25.466514
 20
7.115778
 30
0.0
 11
24.921514
 21
7.115778
 31
0.0
  0
LINE
  5
9A
100
AcDbEntity
  8
0
  6
BYBLOCK
 62
     0
100
AcDbLine
 10
23.206514
 20
7.115778
 30
0.0
 11
23.751514
 21
7.115778
 31
0.0
  0
SOLID
  5
9B
100
AcDbEntity
  8
0
  6
BYBLOCK
 62
     0
100
AcDbTrace
 10
25.466514
 20
7.145778
 30
0.0
 11
25.466514
 21
7.085778
 31
0.0
 12
25.646514
 22
7.115778
 32
0.0
 13
25.646514
 23
7.115778
 33
0.0
  0
SOLID
  5
9C
100
AcDbEntity
  8
0
  6
BYBLOCK
 62
     0
100
AcDbTrace
 10
23.206514
 20
7.145778
 30
0.0
 11
23.206514
 21
7.085778
 31
0.0
 12
23.026514
 22
7.115778
 32
0.0
 13
23.026514
 23
7.115778
 33
0.0
  0
MTEXT
  5
9D
100
AcDbEntity
  8
0
  6
BYBLOCK
 62
     0
100
AcDbMText
 10
24.336514
 20
7.115778
 30
0.0
 40
0.18
 41
0.0
 71
     5
 72
     1
  1
\A1;2.6200
  0
POINT
  5
9F
100
AcDbEntity
  8
DEFPOINTS
  6
BYBLOCK
 62
     0
100
AcDbPoint
 10
25.646514
 20
7.802751
 30
0.0
  0
POINT
  5
A0
100
AcDbEntity
  8
DEFPOINTS
  6
BYBLOCK
 62
     0
100
AcDbPoint
 10
23.026514
 20
8.281751
 30
0.0
  0
POINT
  5
A1
100
AcDbEntity
  8
DEFPOINTS
  6
BYBLOCK
 62
     0
100
AcDbPoint
 10
23.026514
 20
7.115778
 30
0.0
  0
ENDBLK
  5
A2
100
AcDbEntity
  8
0
100
AcDbBlockEnd
  0
BLOCK
  5
F6
100
AcDbEntity
  8
0
100
AcDbBlockBegin
  2
*D1
 70
    65
 10
0.0
 20
0.0
 30
0.0
  3
*D1
  1

  0
LINE
  5
F7
100
AcDbEntity
  8
0
  6
BYBLOCK
 62
     0
100
AcDbLine
 10
6.072649
 20
6.078493
 30
0.0
 11
6.072649
 21
5.954518
 31
0.0
  0
LINE
  5
F8
100
AcDbEntity
  8
0
  6
BYBLOCK
 62
     0
100
AcDbLine
 10
10.072649
 20
6.078493
 30
0.0
 11
10.072649
 21
5.954518
 31
0.0
  0
LINE
  5
F9
100
AcDbEntity
  8
0
  6
BYBLOCK
 62
     0
100
AcDbLine
 10
6.252649
 20
6.134518
 30
0.0
 11
7.487649
 21
6.134518
 31
0.0
  0
LINE
  5
FA
100
AcDbEntity
  8
0
  6
BYBLOCK
 62
     0
100
AcDbLine
 10
9.892649
 20
6.134518
 30
0.0
 11
8.657649
 21
6.134518
 31
0.0
  0
SOLID
  5
FB
100
AcDbEntity
  8
0
  6
BYBLOCK
 62
     0
100
AcDbTrace
 10
6.252649
 20
6.164518
 30
0.0
 11
6.252649
 21
6.104518
 31
0.0
 12
6.072649
 22
6.134518
 32
0.0
 13
6.072649
 23
6.134518
 33
0.0
  0
SOLID
  5
FC
100
AcDbEntity
  8
0
  6
BYBLOCK
 62
     0
100
AcDbTrace
 10
9.892649
 20
6.164518
 30
0.0
 11
9.892649
 21
6.104518
 31
0.0
 12
10.072649
 22
6.134518
 32
0.0
 13
10.072649
 23
6.134518
 33
0.0
  0
MTEXT
  5
FD
100
AcDbEntity
  8
0
  6
BYBLOCK
 62
     0
100
AcDbMText
 10
8.072649
 20
6.134518
 30
0.0
 40
0.18
 41
0.0
 71
     5
 72
     1
  1
\A1;4.0000
  0
POINT
  5
FE
100
AcDbEntity
  8
DEFPOINTS
  6
BYBLOCK
 62
     0
100
AcDbPoint
 10
6.072649
 20
6.140993
 30
0.0
  0
POINT
  5
FF
100
AcDbEntity
  8
DEFPOINTS
  6
BYBLOCK
 62
     0
100
AcDbPoint
 10
10.072649
 20
6.140993
 30
0.0
  0
POINT
  5
100
100
AcDbEntity
  8
DEFPOINTS
  6
BYBLOCK
 62
     0
100
AcDbPoint
 10
10.072649
 20
6.134518
 30
0.0
  0
ENDBLK
  5
101
100
AcDbEntity
  8
0
100
AcDbBlockEnd
  0
BLOCK
  5
104
100
AcDbEntity
  8
0
100
AcDbBlockBegin
  2
*D2
 70
    65
 10
0.0
 20
0.0
 30
0.0
  3
*D2
  1

  0
LINE
  5
105
100
AcDbEntity
  8
0
  6
BYBLOCK
 62
     0
100
AcDbLine
 10
10.072649
 20
6.078493
 30
0.0
 11
10.072649
 21
5.954518
 31
0.0
  0
LINE
  5
106
100
AcDbEntity
  8
0
  6
BYBLOCK
 62
     0
100
AcDbLine
 10
18.385149
 20
6.078493
 30
0.0
 11
18.385149
 21
5.954518
 31
0.0
  0
LINE
  5
107
100
AcDbEntity
  8
0
  6
BYBLOCK
 62
     0
100
AcDbLine
 10
10.252649
 20
6.134518
 30
0.0
 11
13.628899
 21
6.134518
 31
0.0
  0
LINE
  5
108
100
AcDbEntity
  8
0
  6
BYBLOCK
 62
     0
100
AcDbLine
 10
18.205149
 20
6.134518
 30
0.0
 11
14.828899
 21
6.134518
 31
0.0
  0
SOLID
  5
109
100
AcDbEntity
  8
0
  6
BYBLOCK
 62
     0
100
AcDbTrace
 10
10.252649
 20
6.164518
 30
0.0
 11
10.252649
 21
6.104518
 31
0.0
 12
10.072649
 22
6.134518
 32
0.0
 13
10.072649
 23
6.134518
 33
0.0
  0
SOLID
  5
10A
100
AcDbEntity
  8
0
  6
BYBLOCK
 62
     0
100
AcDbTrace
 10
18.205149
 20
6.164518
 30
0.0
 11
18.205149
 21
6.104518
 31
0.0
 12
18.385149
 22
6.134518
 32
0.0
 13
18.385149
 23
6.134518
 33
0.0
  0
MTEXT
  5
10B
100
AcDbEntity
  8
0
  6
BYBLOCK
 62
     0
100
AcDbMText
 10
14.228899
 20
6.134518
 30
0.0
 40
0.18
 41
0.0
 71
     5
 72
     1
  1
\A1;8.3125
  0
POINT
  5
10C
100
AcDbEntity
  8
DEFPOINTS
  6
BYBLOCK
 62
     0
100
AcDbPoint
 10
10.072649
 20
6.140993
 30
0.0
  0
POINT
  5
10D
100
AcDbEntity
  8
DEFPOINTS
  6
BYBLOCK
 62
     0
100
AcDbPoint
 10
18.385149
 20
6.140993
 30
0.0
  0
POINT
  5
10E
100
AcDbEntity
  8
DEFPOINTS
  6
BYBLOCK
 62
     0
100
AcDbPoint
 10
18.385149
 20
6.134518
 30
0.0
  0
ENDBLK
  5
10F
100
AcDbEntity
  8
0
100
AcDbBlockEnd
  0
BLOCK
  5
112
100
AcDbEntity
  8
0
100
AcDbBlockBegin
  2
*D3
 70
    65
 10
0.0
 20
0.0
 30
0.0
  3
*D3
  1

  0
LINE
  5
113
100
AcDbEntity
  8
0
  6
BYBLOCK
 62
     0
100
AcDbLine
 10
18.385149
 20
6.078493
 30
0.0
 11
18.385149
 21
5.954518
 31
0.0
  0
LINE
  5
114
100
AcDbEntity
  8
0
  6
BYBLOCK
 62
     0
100
AcDbLine
 10
23.742649
 20
6.078493
 30
0.0
 11
23.742649
 21
5.954518
 31
0.0
  0
LINE
  5
115
100
AcDbEntity
  8
0
  6
BYBLOCK
 62
     0
100
AcDbLine
 10
18.565149
 20
6.134518
 30
0.0
 11
20.463899
 21
6.134518
 31
0.0
  0
LINE
  5
116
100
AcDbEntity
  8
0
  6
BYBLOCK
 62
     0
100
AcDbLine
 10
23.562649
 20
6.134518
 30
0.0
 11
21.663899
 21
6.134518
 31
0.0
  0
SOLID
  5
117
100
AcDbEntity
  8
0
  6
BYBLOCK
 62
     0
100
AcDbTrace
 10
18.565149
 20
6.164518
 30
0.0
 11
18.565149
 21
6.104518
 31
0.0
 12
18.385149
 22
6.134518
 32
0.0
 13
18.385149
 23
6.134518
 33
0.0
  0
SOLID
  5
118
100
AcDbEntity
  8
0
  6
BYBLOCK
 62
     0
100
AcDbTrace
 10
23.562649
 20
6.164518
 30
0.0
 11
23.562649
 21
6.104518
 31
0.0
 12
23.742649
 22
6.134518
 32
0.0
 13
23.742649
 23
6.134518
 33
0.0
  0
MTEXT
  5
119
100
AcDbEntity
  8
0
  6
BYBLOCK
 62
     0
100
AcDbMText
 10
21.063899
 20
6.134518
 30
0.0
 40
0.18
 41
0.0
 71
     5
 72
     1
  1
\A1;5.3575
  0
POINT
  5
11A
100
AcDbEntity
  8
DEFPOINTS
  6
BYBLOCK
 62
     0
100
AcDbPoint
 10
18.385149
 20
6.140993
 30
0.0
  0
POINT
  5
11B
100
AcDbEntity
  8
DEFPOINTS
  6
BYBLOCK
 62
     0
100
AcDbPoint
 10
23.742649
 20
6.140993
 30
0.0
  0
POINT
  5
11C
100
AcDbEntity
  8
DEFPOINTS
  6
BYBLOCK
 62
     0
100
AcDbPoint
 10
23.742649
 20
6.134518
 30
0.0
  0
ENDBLK
  5
11D
100
AcDbEntity
  8
0
100
AcDbBlockEnd
  0
BLOCK
  5
121
100
AcDbEntity
  8
0
100
AcDbBlockBegin
  2
*D4
 70
    65
 10
0.0
 20
0.0
 30
0.0
  3
*D4
  1

  0
LINE
  5
122
100
AcDbEntity
  8
0
  6
BYBLOCK
 62
     0
100
AcDbLine
 10
10.072649
 20
6.078493
 30
0.0
 11
10.072649
 21
5.928355
 31
0.0
  0
LINE
  5
123
100
AcDbEntity
  8
0
  6
BYBLOCK
 62
     0
100
AcDbLine
 10
18.072649
 20
6.078493
 30
0.0
 11
18.072649
 21
5.928355
 31
0.0
  0
LINE
  5
124
100
AcDbEntity
  8
0
  6
BYBLOCK
 62
     0
100
AcDbLine
 10
10.252649
 20
6.108355
 30
0.0
 11
13.487649
 21
6.108355
 31
0.0
  0
LINE
  5
125
100
AcDbEntity
  8
0
  6
BYBLOCK
 62
     0
100
AcDbLine
 10
17.892649
 20
6.108355
 30
0.0
 11
14.657649
 21
6.108355
 31
0.0
  0
SOLID
  5
126
100
AcDbEntity
  8
0
  6
BYBLOCK
 62
     0
100
AcDbTrace
 10
10.252649
 20
6.138355
 30
0.0
 11
10.252649
 21
6.078355
 31
0.0
 12
10.072649
 22
6.108355
 32
0.0
 13
10.072649
 23
6.108355
 33
0.0
  0
SOLID
  5
127
100
AcDbEntity
  8
0
  6
BYBLOCK
 62
     0
100
AcDbTrace
 10
17.892649
 20
6.138355
 30
0.0
 11
17.892649
 21
6.078355
 31
0.0
 12
18.072649
 22
6.108355
 32
0.0
 13
18.072649
 23
6.108355
 33
0.0
  0
MTEXT
  5
128
100
AcDbEntity
  8
0
  6
BYBLOCK
 62
     0
100
AcDbMText
 10
14.072649
 20
6.108355
 30
0.0
 40
0.18
 41
0.0
 71
     5
 72
     1
  1
\A1;8.0000
  0
POINT
  5
129
100
AcDbEntity
  8
DEFPOINTS
  6
BYBLOCK
 62
     0
100
AcDbPoint
 10
10.072649
 20
6.140993
 30
0.0
  0
POINT
  5
12A
100
AcDbEntity
  8
DEFPOINTS
  6
BYBLOCK
 62
     0
100
AcDbPoint
 10
18.072649
 20
6.140993
 30
0.0
  0
POINT
  5
12B
100
AcDbEntity
  8
DEFPOINTS
  6
BYBLOCK
 62
     0
100
AcDbPoint
 10
18.072649
 20
6.108355
 30
0.0
  0
ENDBLK
  5
12C
100
AcDbEntity
  8
0
100
AcDbBlockEnd
  0
BLOCK
  5
12F
100
AcDbEntity
  8
0
100
AcDbBlockBegin
  2
*D5
 70
    65
 10
0.0
 20
0.0
 30
0.0
  3
*D5
  1

  0
LINE
  5
130
100
AcDbEntity
  8
0
  6
BYBLOCK
 62
     0
100
AcDbLine
 10
18.072649
 20
6.669808
 30
0.0
 11
18.072649
 21
6.087472
 31
0.0
  0
LINE
  5
131
100
AcDbEntity
  8
0
  6
BYBLOCK
 62
     0
100
AcDbLine
 10
23.430149
 20
7.311516
 30
0.0
 11
23.430149
 21
6.087472
 31
0.0
  0
LINE
  5
132
100
AcDbEntity
  8
0
  6
BYBLOCK
 62
     0
100
AcDbLine
 10
18.252649
 20
6.267472
 30
0.0
 11
20.151399
 21
6.267472
 31
0.0
  0
LINE
  5
133
100
AcDbEntity
  8
0
  6
BYBLOCK
 62
     0
100
AcDbLine
 10
23.250149
 20
6.267472
 30
0.0
 11
21.351399
 21
6.267472
 31
0.0
  0
SOLID
  5
134
100
AcDbEntity
  8
0
  6
BYBLOCK
 62
     0
100
AcDbTrace
 10
18.252649
 20
6.297472
 30
0.0
 11
18.252649
 21
6.237472
 31
0.0
 12
18.072649
 22
6.267472
 32
0.0
 13
18.072649
 23
6.267472
 33
0.0
  0
SOLID
  5
135
100
AcDbEntity
  8
0
  6
BYBLOCK
 62
     0
100
AcDbTrace
 10
23.250149
 20
6.297472
 30
0.0
 11
23.250149
 21
6.237472
 31
0.0
 12
23.430149
 22
6.267472
 32
0.0
 13
23.430149
 23
6.267472
 33
0.0
  0
MTEXT
  5
136
100
AcDbEntity
  8
0
  6
BYBLOCK
 62
     0
100
AcDbMText
 10
20.751399
 20
6.267472
 30
0.0
 40
0.18
 41
0.0
 71
     5
 72
     1
  1
\A1;5.3575
  0
POINT
  5
137
100
AcDbEntity
  8
DEFPOINTS
  6
BYBLOCK
 62
     0
100
AcDbPoint
 10
18.072649
 20
6.732308
 30
0.0
  0
POINT
  5
138
100
AcDbEntity
  8
DEFPOINTS
  6
BYBLOCK
 62
     0
100
AcDbPoint
 10
23.430149
 20
7.374016
 30
0.0
  0
POINT
  5
139
100
AcDbEntity
  8
DEFPOINTS
  6
BYBLOCK
 62
     0
100
AcDbPoint
 10
23.430149
 20
6.267472
 30
0.0
  0
ENDBLK
  5
13A
100
AcDbEntity
  8
0
100
AcDbBlockEnd
  0
BLOCK
  5
148
100
AcDbEntity
  8
0
100
AcDbBlockBegin
  2
*D6
 70
    65
 10
0.0
 20
0.0
 30
0.0
  3
*D6
  1

  0
LINE
  5
149
100
AcDbEntity
  8
0
  6
BYBLOCK
 62
     0
100
AcDbLine
 10
18.072649
 20
6.078493
 30
0.0
 11
18.072649
 21
5.922072
 31
0.0
  0
LINE
  5
14A
100
AcDbEntity
  8
0
  6
BYBLOCK
 62
     0
100
AcDbLine
 10
23.742649
 20
6.078493
 30
0.0
 11
23.742649
 21
5.922072
 31
0.0
  0
LINE
  5
14B
100
AcDbEntity
  8
0
  6
BYBLOCK
 62
     0
100
AcDbLine
 10
18.252649
 20
6.102072
 30
0.0
 11
20.322649
 21
6.102072
 31
0.0
  0
LINE
  5
14C
100
AcDbEntity
  8
0
  6
BYBLOCK
 62
     0
100
AcDbLine
 10
23.562649
 20
6.102072
 30
0.0
 11
21.492649
 21
6.102072
 31
0.0
  0
SOLID
  5
14D
100
AcDbEntity
  8
0
  6
BYBLOCK
 62
     0
100
AcDbTrace
 10
18.252649
 20
6.132072
 30
0.0
 11
18.252649
 21
6.072072
 31
0.0
 12
18.072649
 22
6.102072
 32
0.0
 13
18.072649
 23
6.102072
 33
0.0
  0
SOLID
  5
14E
100
AcDbEntity
  8
0
  6
BYBLOCK
 62
     0
100
AcDbTrace
 10
23.562649
 20
6.132072
 30
0.0
 11
23.562649
 21
6.072072
 31
0.0
 12
23.742649
 22
6.102072
 32
0.0
 13
23.742649
 23
6.102072
 33
0.0
  0
MTEXT
  5
14F
100
AcDbEntity
  8
0
  6
BYBLOCK
 62
     0
100
AcDbMText
 10
20.907649
 20
6.102072
 30
0.0
 40
0.18
 41
0.0
 71
     5
 72
     1
  1
\A1;5.6700
  0
POINT
  5
150
100
AcDbEntity
  8
DEFPOINTS
  6
BYBLOCK
 62
     0
100
AcDbPoint
 10
18.072649
 20
6.140993
 30
0.0
  0
POINT
  5
151
100
AcDbEntity
  8
DEFPOINTS
  6
BYBLOCK
 62
     0
100
AcDbPoint
 10
23.742649
 20
6.140993
 30
0.0
  0
POINT
  5
152
100
AcDbEntity
  8
DEFPOINTS
  6
BYBLOCK
 62
     0
100
AcDbPoint
 10
23.742649
 20
6.102072
 30
0.0
  0
ENDBLK
  5
153
100
AcDbEntity
  8
0
100
AcDbBlockEnd
  0
BLOCK
  5
157
100
AcDbEntity
  8
0
100
AcDbBlockBegin
  2
*D7
 70
    65
 10
0.0
 20
0.0
 30
0.0
  3
*D7
  1

  0
LINE
  5
158
100
AcDbEntity
  8
0
  6
BYBLOCK
 62
     0
100
AcDbLine
 10
18.072649
 20
6.078493
 30
0.0
 11
18.072649
 21
5.922072
 31
0.0
  0
LINE
  5
159
100
AcDbEntity
  8
0
  6
BYBLOCK
 62
     0
100
AcDbLine
 10
23.572649
 20
6.078493
 30
0.0
 11
23.572649
 21
5.922072
 31
0.0
  0
LINE
  5
15A
100
AcDbEntity
  8
0
  6
BYBLOCK
 62
     0
100
AcDbLine
 10
18.252649
 20
6.102072
 30
0.0
 11
20.237649
 21
6.102072
 31
0.0
  0
LINE
  5
15B
100
AcDbEntity
  8
0
  6
BYBLOCK
 62
     0
100
AcDbLine
 10
23.392649
 20
6.102072
 30
0.0
 11
21.407649
 21
6.102072
 31
0.0
  0
SOLID
  5
15C
100
AcDbEntity
  8
0
  6
BYBLOCK
 62
     0
100
AcDbTrace
 10
18.252649
 20
6.132072
 30
0.0
 11
18.252649
 21
6.072072
 31
0.0
 12
18.072649
 22
6.102072
 32
0.0
 13
18.072649
 23
6.102072
 33
0.0
  0
SOLID
  5
15D
100
AcDbEntity
  8
0
  6
BYBLOCK
 62
     0
100
AcDbTrace
 10
23.392649
 20
6.132072
 30
0.0
 11
23.392649
 21
6.072072
 31
0.0
 12
23.572649
 22
6.102072
 32
0.0
 13
23.572649
 23
6.102072
 33
0.0
  0
MTEXT
  5
15E
100
AcDbEntity
  8
0
  6
BYBLOCK
 62
     0
100
AcDbMText
 10
20.822649
 20
6.102072
 30
0.0
 40
0.18
 41
0.0
 71
     5
 72
     1
  1
\A1;5.5000
  0
POINT
  5
15F
100
AcDbEntity
  8
DEFPOINTS
  6
BYBLOCK
 62
     0
100
AcDbPoint
 10
18.072649
 20
6.140993
 30
0.0
  0
POINT
  5
160
100
AcDbEntity
  8
DEFPOINTS
  6
BYBLOCK
 62
     0
100
AcDbPoint
 10
23.572649
 20
6.140993
 30
0.0
  0
POINT
  5
161
100
AcDbEntity
  8
DEFPOINTS
  6
BYBLOCK
 62
     0
100
AcDbPoint
 10
23.572649
 20
6.102072
 30
0.0
  0
ENDBLK
  5
162
100
AcDbEntity
  8
0
100
AcDbBlockEnd
  0
ENDSEC
  0
SECTION
  2
ENTITIES
  0
LINE
  5
28
100
AcDbEntity
  8
0
100
AcDbLine
 10
6.072649
 20
9.415516
 30
0.0
 11
6.072649
 21
6.665516
 31
0.0
  0
LINE
  5
29
100
AcDbEntity
  8
0
100
AcDbLine
 10
6.072649
 20
6.665516
 30
0.0
 11
6.572649
 21
6.665516
 31
0.0
  0
LINE
  5
2A
100
AcDbEntity
  8
0
100
AcDbLine
 10
6.572649
 20
6.665516
 30
0.0
 11
6.572649
 21
7.290516
 31
0.0
  0
LINE
  5
2B
100
AcDbEntity
  8
0
100
AcDbLine
 10
6.572649
 20
9.415516
 30
0.0
 11
6.072649
 21
9.415516
 31
0.0
  0
LINE
  5
2D
100
AcDbEntity
  8
0
100
AcDbLine
 10
6.072649
 20
9.415516
 30
0.0
 11
6.072649
 21
8.790516
 31
0.0
  0
LINE
  5
2E
100
AcDbEntity
  8
0
100
AcDbLine
 10
7.380763
 20
8.790516
 30
0.0
 11
9.872649
 21
8.790516
 31
0.0
  0
LINE
  5
30
100
AcDbEntity
  8
0
100
AcDbLine
 10
7.072649
 20
7.290516
 30
0.0
 11
6.572649
 21
7.290516
 31
0.0
  0
LINE
  5
31
100
AcDbEntity
  8
0
100
AcDbLine
 10
6.572649
 20
8.790516
 30
0.0
 11
7.072649
 21
8.790516
 31
0.0
  0
LINE
  5
32
100
AcDbEntity
  8
0
100
AcDbLine
 10
7.072649
 20
8.821145
 30
0.0
 11
7.072649
 21
7.290516
 31
0.0
  0
LINE
  5
33
100
AcDbEntity
  8
0
100
AcDbLine
 10
6.572649
 20
7.290516
 30
0.0
 11
6.572649
 21
9.415516
 31
0.0
  0
LINE
  5
34
100
AcDbEntity
  8
0
100
AcDbLine
 10
7.072649
 20
8.790516
 30
0.0
 11
7.072649
 21
8.821145
 31
0.0
  0
LINE
  5
44
100
AcDbEntity
  8
0
100
AcDbLine
 10
7.364952
 20
8.793082
 30
0.0
 11
7.13846
 21
8.868579
 31
0.0
  0
ARC
  5
45
100
AcDbEntity
  8
0
100
AcDbCircle
 10
7.122649
 20
8.821145
 30
0.0
 40
0.05
100
AcDbArc
 50
71.565051
 51
180.0
  0
ARC
  5
46
100
AcDbEntity
  8
0
100
AcDbCircle
 10
7.380763
 20
8.840516
 30
0.0
 40
0.05
100
AcDbArc
 50
251.565051
 51
270.0
  0
LINE
  5
4E
100
AcDbEntity
  8
0
100
AcDbLine
 10
7.364952
 20
7.28795
 30
0.0
 11
7.13846
 21
7.212453
 31
0.0
  0
ARC
  5
4F
100
AcDbEntity
  8
0
100
AcDbCircle
 10
7.122649
 20
7.259887
 30
0.0
 40
0.05
100
AcDbArc
 50
180.0
 51
288.434949
  0
LINE
  5
50
100
AcDbEntity
  8
0
100
AcDbLine
 10
7.072649
 20
7.290516
 30
0.0
 11
7.072649
 21
7.259887
 31
0.0
  0
ARC
  5
51
100
AcDbEntity
  8
0
100
AcDbCircle
 10
7.380763
 20
7.240516
 30
0.0
 40
0.05
100
AcDbArc
 50
90.0
 51
108.434949
  0
LINE
  5
52
100
AcDbEntity
  8
0
100
AcDbLine
 10
7.364952
 20
7.28795
 30
0.0
 11
9.872839
 21
7.290327
 31
0.0
  0
LINE
  5
55
100
AcDbEntity
  8
0
100
AcDbLine
 10
10.072649
 20
8.540516
 30
0.0
 11
17.712935
 21
8.540516
 31
0.0
  0
LINE
  5
57
100
AcDbEntity
  8
0
100
AcDbLine
 10
17.712935
 20
7.540516
 30
0.0
 11
10.072649
 21
7.540516
 31
0.0
  0
LINE
  5
5E
100
AcDbEntity
  8
0
100
AcDbLine
 10
20.877649
 20
7.853016
 30
0.0
 11
18.432363
 21
7.853016
 31
0.0
  0
LINE
  5
62
100
AcDbEntity
  8
0
100
AcDbLine
 10
18.34292
 20
7.831902
 30
0.0
 11
17.802378
 21
7.561631
 31
0.0
  0
ARC
  5
65
100
AcDbEntity
  8
0
100
AcDbCircle
 10
18.432363
 20
7.653016
 30
0.0
 40
0.2
100
AcDbArc
 50
90.0
 51
116.565051
  0
ARC
  5
66
100
AcDbEntity
  8
0
100
AcDbCircle
 10
17.712935
 20
7.740516
 30
0.0
 40
0.2
100
AcDbArc
 50
270.0
 51
296.565051
  0
LINE
  5
68
100
AcDbEntity
  8
0
100
AcDbLine
 10
18.34292
 20
8.249131
 30
0.0
 11
17.802378
 21
8.519402
 31
0.0
  0
ARC
  5
69
100
AcDbEntity
  8
0
100
AcDbCircle
 10
17.712935
 20
8.340516
 30
0.0
 40
0.2
100
AcDbArc
 50
63.434949
 51
90.0
  0
ARC
  5
6A
100
AcDbEntity
  8
0
100
AcDbCircle
 10
18.432363
 20
8.428016
 30
0.0
 40
0.2
100
AcDbArc
 50
243.434949
 51
270.0
  0
LINE
  5
6B
100
AcDbEntity
  8
0
100
AcDbLine
 10
18.432363
 20
8.228016
 30
0.0
 11
20.877649
 21
8.228016
 31
0.0
  0
LINE
  5
6C
100
AcDbEntity
  8
0
100
AcDbLine
 10
4.941062
 20
5.76785
 30
0.0
 11
24.720314
 21
5.76785
 31
0.0
  0
LINE
  5
6E
100
AcDbEntity
  8
0
100
AcDbLine
 10
10.072649
 20
6.514136
 30
0.0
 11
10.072649
 21
5.76785
 31
0.0
  0
LINE
  5
6F
100
AcDbEntity
  8
0
100
AcDbLine
 10
18.072649
 20
6.514136
 30
0.0
 11
18.072649
 21
5.76785
 31
0.0
  0
LINE
  5
73
100
AcDbEntity
  8
0
100
AcDbLine
 10
20.902649
 20
8.253016
 30
0.0
 11
20.902649
 21
8.253016
 31
0.0
  0
LINE
  5
75
100
AcDbEntity
  8
0
100
AcDbLine
 10
20.927649
 20
8.278016
 30
0.0
 11
20.927649
 21
8.278016
 31
0.0
  0
LINE
  5
76
100
AcDbEntity
  8
0
100
AcDbLine
 10
20.952649
 20
8.253016
 30
0.0
 11
20.952649
 21
8.228016
 31
0.0
  0
ARC
  5
79
100
AcDbEntity
  8
0
100
AcDbCircle
 10
20.927649
 20
8.253016
 30
0.0
 40
0.025
100
AcDbArc
 50
90.0
 51
180.0
  0
ARC
  5
7A
100
AcDbEntity
  8
0
100
AcDbCircle
 10
20.927649
 20
8.253016
 30
0.0
 40
0.025
100
AcDbArc
 50
0.0
 51
90.0
  0
ARC
  5
7B
100
AcDbEntity
  8
0
100
AcDbCircle
 10
20.877649
 20
8.253016
 30
0.0
 40
0.025
100
AcDbArc
 50
270.0
 51
0.0
  0
ARC
  5
7C
100
AcDbEntity
  8
0
100
AcDbCircle
 10
20.927649
 20
7.828016
 30
0.0
 40
0.025
100
AcDbArc
 50
270.0
 51
0.0
  0
ARC
  5
7D
100
AcDbEntity
  8
0
100
AcDbCircle
 10
20.877649
 20
7.828016
 30
0.0
 40
0.025
100
AcDbArc
 50
0.0
 51
90.0
  0
LINE
  5
7E
100
AcDbEntity
  8
0
100
AcDbLine
 10
20.902649
 20
7.828016
 30
0.0
 11
20.902649
 21
7.828016
 31
0.0
  0
LINE
  5
7F
100
AcDbEntity
  8
0
100
AcDbLine
 10
20.927649
 20
7.803016
 30
0.0
 11
20.927649
 21
7.803016
 31
0.0
  0
ARC
  5
80
100
AcDbEntity
  8
0
100
AcDbCircle
 10
20.927649
 20
7.828016
 30
0.0
 40
0.025
100
AcDbArc
 50
180.0
 51
270.0
  0
LINE
  5
81
100
AcDbEntity
  8
0
100
AcDbLine
 10
20.952649
 20
7.828016
 30
0.0
 11
20.952649
 21
7.853016
 31
0.0
  0
LINE
  5
82
100
AcDbEntity
  8
0
100
AcDbLine
 10
20.952649
 20
8.228016
 30
0.0
 11
20.952649
 21
7.853016
 31
0.0
  0
LINE
  5
83
100
AcDbEntity
  8
0
100
AcDbLine
 10
23.287649
 20
8.707016
 30
0.0
 11
23.287649
 21
7.853016
 31
0.0
  0
LINE
  5
85
100
AcDbEntity
  8
0
100
AcDbLine
 10
23.287649
 20
7.374016
 30
0.0
 11
23.572649
 21
7.374016
 31
0.0
  0
LINE
  5
86
100
AcDbEntity
  8
0
100
AcDbLine
 10
23.572649
 20
7.374016
 30
0.0
 11
23.572649
 21
8.707016
 31
0.0
  0
LINE
  5
87
100
AcDbEntity
  8
0
100
AcDbLine
 10
23.572649
 20
8.707016
 30
0.0
 11
23.287649
 21
8.707016
 31
0.0
  0
LINE
  5
89
100
AcDbEntity
  8
0
100
AcDbLine
 10
23.572649
 20
8.040516
 30
0.0
 11
23.572649
 21
8.228016
 31
0.0
  0
LINE
  5
8A
100
AcDbEntity
  8
0
100
AcDbLine
 10
23.287649
 20
8.228016
 30
0.0
 11
22.702649
 21
8.228016
 31
0.0
  0
LINE
  5
8B
100
AcDbEntity
  8
0
100
AcDbLine
 10
22.702649
 20
8.228016
 30
0.0
 11
22.702649
 21
7.853016
 31
0.0
  0
LINE
  5
8C
100
AcDbEntity
  8
0
100
AcDbLine
 10
22.702649
 20
7.853016
 30
0.0
 11
23.287649
 21
7.853016
 31
0.0
  0
LINE
  5
8D
100
AcDbEntity
  8
0
100
AcDbLine
 10
23.287649
 20
7.853016
 30
0.0
 11
23.287649
 21
7.374016
 31
0.0
  0
LINE
  5
8F
100
AcDbEntity
  8
0
100
AcDbLine
 10
21.702649
 20
8.228016
 30
0.0
 11
21.702649
 21
7.853016
 31
0.0
  0
LINE
  5
92
100
AcDbEntity
  8
0
100
AcDbLine
 10
21.702649
 20
8.228016
 30
0.0
 11
20.952649
 21
8.228016
 31
0.0
  0
LINE
  5
93
100
AcDbEntity
  8
0
100
AcDbLine
 10
20.952649
 20
8.228016
 30
0.0
 11
20.952649
 21
7.853016
 31
0.0
  0
LINE
  5
94
100
AcDbEntity
  8
0
100
AcDbLine
 10
20.952649
 20
7.853016
 30
0.0
 11
21.702649
 21
7.853016
 31
0.0
  0
LINE
  5
A9
100
AcDbEntity
  8
0
100
AcDbLine
 10
21.77501
 20
8.283295
 30
0.0
 11
21.802649
 21
8.228016
 31
0.0
  0
LINE
  5
AD
100
AcDbEntity
  8
0
100
AcDbLine
 10
21.702649
 20
8.228016
 30
0.0
 11
21.730288
 21
8.283295
 31
0.0
  0
LINE
  5
AE
100
AcDbEntity
  8
0
100
AcDbLine
 10
21.802649
 20
8.228016
 30
0.0
 11
21.830288
 21
8.283295
 31
0.0
  0
LINE
  5
AF
100
AcDbEntity
  8
0
100
AcDbLine
 10
21.87501
 20
8.283295
 30
0.0
 11
21.902649
 21
8.228016
 31
0.0
  0
LINE
  5
B0
100
AcDbEntity
  8
0
100
AcDbLine
 10
21.902649
 20
8.228016
 30
0.0
 11
21.930288
 21
8.283295
 31
0.0
  0
LINE
  5
B1
100
AcDbEntity
  8
0
100
AcDbLine
 10
21.97501
 20
8.283295
 30
0.0
 11
22.002649
 21
8.228016
 31
0.0
  0
LINE
  5
B2
100
AcDbEntity
  8
0
100
AcDbLine
 10
22.002649
 20
8.228016
 30
0.0
 11
22.030288
 21
8.283295
 31
0.0
  0
LINE
  5
B3
100
AcDbEntity
  8
0
100
AcDbLine
 10
22.07501
 20
8.283295
 30
0.0
 11
22.102649
 21
8.228016
 31
0.0
  0
LINE
  5
B4
100
AcDbEntity
  8
0
100
AcDbLine
 10
22.102649
 20
8.228016
 30
0.0
 11
22.130288
 21
8.283295
 31
0.0
  0
LINE
  5
B5
100
AcDbEntity
  8
0
100
AcDbLine
 10
22.17501
 20
8.283295
 30
0.0
 11
22.202649
 21
8.228016
 31
0.0
  0
LINE
  5
B6
100
AcDbEntity
  8
0
100
AcDbLine
 10
22.202649
 20
8.228016
 30
0.0
 11
22.230288
 21
8.283295
 31
0.0
  0
LINE
  5
B7
100
AcDbEntity
  8
0
100
AcDbLine
 10
22.27501
 20
8.283295
 30
0.0
 11
22.302649
 21
8.228016
 31
0.0
  0
LINE
  5
B8
100
AcDbEntity
  8
0
100
AcDbLine
 10
22.302649
 20
8.228016
 30
0.0
 11
22.330288
 21
8.283295
 31
0.0
  0
LINE
  5
B9
100
AcDbEntity
  8
0
100
AcDbLine
 10
22.37501
 20
8.283295
 30
0.0
 11
22.402649
 21
8.228016
 31
0.0
  0
LINE
  5
BA
100
AcDbEntity
  8
0
100
AcDbLine
 10
22.402649
 20
8.228016
 30
0.0
 11
22.430288
 21
8.283295
 31
0.0
  0
LINE
  5
BB
100
AcDbEntity
  8
0
100
AcDbLine
 10
22.47501
 20
8.283295
 30
0.0
 11
22.502649
 21
8.228016
 31
0.0
  0
LINE
  5
BC
100
AcDbEntity
  8
0
100
AcDbLine
 10
22.502649
 20
8.228016
 30
0.0
 11
22.530288
 21
8.283295
 31
0.0
  0
LINE
  5
BD
100
AcDbEntity
  8
0
100
AcDbLine
 10
22.57501
 20
8.283295
 30
0.0
 11
22.602649
 21
8.228016
 31
0.0
  0
LINE
  5
BE
100
AcDbEntity
  8
0
100
AcDbLine
 10
22.602649
 20
8.228016
 30
0.0
 11
22.630288
 21
8.283295
 31
0.0
  0
LINE
  5
BF
100
AcDbEntity
  8
0
100
AcDbLine
 10
22.67501
 20
8.283295
 30
0.0
 11
22.702649
 21
8.228016
 31
0.0
  0
ARC
  5
C0
100
AcDbEntity
  8
0
100
AcDbCircle
 10
21.752649
 20
8.272114
 30
0.0
 40
0.025
100
AcDbArc
 50
26.565051
 51
153.434949
  0
ARC
  5
C1
100
AcDbEntity
  8
0
100
AcDbCircle
 10
21.852649
 20
8.272114
 30
0.0
 40
0.025
100
AcDbArc
 50
26.565051
 51
153.434949
  0
ARC
  5
C2
100
AcDbEntity
  8
0
100
AcDbCircle
 10
21.952649
 20
8.272114
 30
0.0
 40
0.025
100
AcDbArc
 50
26.565051
 51
153.434949
  0
ARC
  5
C3
100
AcDbEntity
  8
0
100
AcDbCircle
 10
22.052649
 20
8.272114
 30
0.0
 40
0.025
100
AcDbArc
 50
26.565051
 51
153.434949
  0
ARC
  5
C4
100
AcDbEntity
  8
0
100
AcDbCircle
 10
22.152649
 20
8.272114
 30
0.0
 40
0.025
100
AcDbArc
 50
26.565051
 51
153.434949
  0
ARC
  5
C5
100
AcDbEntity
  8
0
100
AcDbCircle
 10
22.252649
 20
8.272114
 30
0.0
 40
0.025
100
AcDbArc
 50
26.565051
 51
153.434949
  0
ARC
  5
C6
100
AcDbEntity
  8
0
100
AcDbCircle
 10
22.352649
 20
8.272114
 30
0.0
 40
0.025
100
AcDbArc
 50
26.565051
 51
153.434949
  0
ARC
  5
C7
100
AcDbEntity
  8
0
100
AcDbCircle
 10
22.452649
 20
8.272114
 30
0.0
 40
0.025
100
AcDbArc
 50
26.565051
 51
153.434949
  0
ARC
  5
C8
100
AcDbEntity
  8
0
100
AcDbCircle
 10
22.552649
 20
8.272114
 30
0.0
 40
0.025
100
AcDbArc
 50
26.565051
 51
153.434949
  0
ARC
  5
C9
100
AcDbEntity
  8
0
100
AcDbCircle
 10
22.652649
 20
8.272114
 30
0.0
 40
0.025
100
AcDbArc
 50
26.565051
 51
153.434949
  0
LINE
  5
CA
100
AcDbEntity
  8
0
100
AcDbLine
 10
22.67501
 20
7.797738
 30
0.0
 11
22.702649
 21
7.853016
 31
0.0
  0
ARC
  5
CB
100
AcDbEntity
  8
0
100
AcDbCircle
 10
22.652649
 20
7.808918
 30
0.0
 40
0.025
100
AcDbArc
 50
206.565051
 51
333.434949
  0
ARC
  5
CC
100
AcDbEntity
  8
0
100
AcDbCircle
 10
22.552649
 20
7.808918
 30
0.0
 40
0.025
100
AcDbArc
 50
206.565051
 51
333.434949
  0
ARC
  5
CD
100
AcDbEntity
  8
0
100
AcDbCircle
 10
22.452649
 20
7.808918
 30
0.0
 40
0.025
100
AcDbArc
 50
206.565051
 51
333.434949
  0
ARC
  5
CE
100
AcDbEntity
  8
0
100
AcDbCircle
 10
22.352649
 20
7.808918
 30
0.0
 40
0.025
100
AcDbArc
 50
206.565051
 51
333.434949
  0
ARC
  5
CF
100
AcDbEntity
  8
0
100
AcDbCircle
 10
22.252649
 20
7.808918
 30
0.0
 40
0.025
100
AcDbArc
 50
206.565051
 51
333.434949
  0
ARC
  5
D0
100
AcDbEntity
  8
0
100
AcDbCircle
 10
22.152649
 20
7.808918
 30
0.0
 40
0.025
100
AcDbArc
 50
206.565051
 51
333.434949
  0
ARC
  5
D1
100
AcDbEntity
  8
0
100
AcDbCircle
 10
22.052649
 20
7.808918
 30
0.0
 40
0.025
100
AcDbArc
 50
206.565051
 51
333.434949
  0
ARC
  5
D2
100
AcDbEntity
  8
0
100
AcDbCircle
 10
21.952649
 20
7.808918
 30
0.0
 40
0.025
100
AcDbArc
 50
206.565051
 51
333.434949
  0
ARC
  5
D3
100
AcDbEntity
  8
0
100
AcDbCircle
 10
21.852649
 20
7.808918
 30
0.0
 40
0.025
100
AcDbArc
 50
206.565051
 51
333.434949
  0
ARC
  5
D4
100
AcDbEntity
  8
0
100
AcDbCircle
 10
21.752649
 20
7.808918
 30
0.0
 40
0.025
100
AcDbArc
 50
206.565051
 51
333.434949
  0
LINE
  5
D5
100
AcDbEntity
  8
0
100
AcDbLine
 10
21.702649
 20
7.853016
 30
0.0
 11
21.730288
 21
7.797738
 31
0.0
  0
LINE
  5
D6
100
AcDbEntity
  8
0
100
AcDbLine
 10
22.202649
 20
7.853016
 30
0.0
 11
22.230288
 21
7.797738
 31
0.0
  0
LINE
  5
D7
100
AcDbEntity
  8
0
100
AcDbLine
 10
21.802649
 20
7.853016
 30
0.0
 11
21.830288
 21
7.797738
 31
0.0
  0
LINE
  5
D8
100
AcDbEntity
  8
0
100
AcDbLine
 10
21.77501
 20
7.797738
 30
0.0
 11
21.802649
 21
7.853016
 31
0.0
  0
LINE
  5
D9
100
AcDbEntity
  8
0
100
AcDbLine
 10
21.902649
 20
7.853016
 30
0.0
 11
21.930288
 21
7.797738
 31
0.0
  0
LINE
  5
DA
100
AcDbEntity
  8
0
100
AcDbLine
 10
21.87501
 20
7.797738
 30
0.0
 11
21.902649
 21
7.853016
 31
0.0
  0
LINE
  5
DB
100
AcDbEntity
  8
0
100
AcDbLine
 10
22.07501
 20
7.797738
 30
0.0
 11
22.102649
 21
7.853016
 31
0.0
  0
LINE
  5
DC
100
AcDbEntity
  8
0
100
AcDbLine
 10
22.002649
 20
7.853016
 30
0.0
 11
22.030288
 21
7.797738
 31
0.0
  0
LINE
  5
DD
100
AcDbEntity
  8
0
100
AcDbLine
 10
21.97501
 20
7.797738
 30
0.0
 11
22.002649
 21
7.853016
 31
0.0
  0
LINE
  5
DE
100
AcDbEntity
  8
0
100
AcDbLine
 10
22.17501
 20
7.797738
 30
0.0
 11
22.202649
 21
7.853016
 31
0.0
  0
LINE
  5
DF
100
AcDbEntity
  8
0
100
AcDbLine
 10
22.102649
 20
7.853016
 30
0.0
 11
22.130288
 21
7.797738
 31
0.0
  0
LINE
  5
E0
100
AcDbEntity
  8
0
100
AcDbLine
 10
22.302649
 20
7.853016
 30
0.0
 11
22.330288
 21
7.797738
 31
0.0
  0
LINE
  5
E1
100
AcDbEntity
  8
0
100
AcDbLine
 10
22.27501
 20
7.797738
 30
0.0
 11
22.302649
 21
7.853016
 31
0.0
  0
LINE
  5
E2
100
AcDbEntity
  8
0
100
AcDbLine
 10
22.402649
 20
7.853016
 30
0.0
 11
22.430288
 21
7.797738
 31
0.0
  0
LINE
  5
E3
100
AcDbEntity
  8
0
100
AcDbLine
 10
22.37501
 20
7.797738
 30
0.0
 11
22.402649
 21
7.853016
 31
0.0
  0
LINE
  5
E4
100
AcDbEntity
  8
0
100
AcDbLine
 10
22.502649
 20
7.853016
 30
0.0
 11
22.530288
 21
7.797738
 31
0.0
  0
LINE
  5
E5
100
AcDbEntity
  8
0
100
AcDbLine
 10
22.47501
 20
7.797738
 30
0.0
 11
22.502649
 21
7.853016
 31
0.0
  0
LINE
  5
E6
100
AcDbEntity
  8
0
100
AcDbLine
 10
22.602649
 20
7.853016
 30
0.0
 11
22.630288
 21
7.797738
 31
0.0
  0
LINE
  5
E7
100
AcDbEntity
  8
0
100
AcDbLine
 10
22.57501
 20
7.797738
 30
0.0
 11
22.602649
 21
7.853016
 31
0.0
  0
LINE
  5
E8
100
AcDbEntity
  8
0
100
AcDbLine
 10
23.572649
 20
6.514136
 30
0.0
 11
23.572649
 21
5.76785
 31
0.0
  0
MTEXT
  5
E9
100
AcDbEntity
  8
0
100
AcDbMText
 10
4.417618
 20
10.289605
 30
0.0
 40
0.2
 41
5.51606
 71
     1
 72
     1
  1
{MDC Part #}\P{460013}
  0
MTEXT
  5
EA
100
AcDbEntity
  8
0
100
AcDbMText
 10
21.489825
 20
10.317164
 30
0.0
 40
0.2
 41
3.419957
 71
     1
 72
     1
  1
{MDC Part #}\P{466007}
  0
MTEXT
  5
EB
100
AcDbEntity
  8
0
100
AcDbMText
 10
15.449739
 20
10.317164
 30
0.0
 40
0.2
 41
3.69576
 71
     1
 72
     1
  1
{1 inch diameter Pyrex Tube}
  0
LINE
  5
EF
100
AcDbEntity
  8
0
100
AcDbLine
 10
6.072649
 20
6.514136
 30
0.0
 11
6.072649
 21
5.76785
 31
0.0
  0
ARC
  5
F2
100
AcDbEntity
  8
0
100
AcDbCircle
 10
9.872649
 20
8.590516
 30
0.0
 40
0.2
100
AcDbArc
 50
0.0
 51
90.0
  0
ARC
  5
F3
100
AcDbEntity
  8
0
100
AcDbCircle
 10
9.872649
 20
7.490327
 30
0.0
 40
0.2
100
AcDbArc
 50
270.054294
 51
0.0
  0
DIMENSION
  5
102
100
AcDbEntity
  8
0
100
AcDbDimension
  2
*D1
 10
10.072649
 20
6.134518
 30
0.0
 11
8.072649
 21
6.134518
 31
0.0
 70
    32
  3
STANDARD
100
AcDbAlignedDimension
 13
6.072649
 23
6.140993
 33
0.0
 14
10.072649
 24
6.140993
 34
0.0
100
AcDbRotatedDimension
  0
LINE
  5
11F
100
AcDbEntity
  8
0
100
AcDbLine
 10
18.072649
 20
7.696766
 30
0.0
 11
18.072649
 21
5.76785
 31
0.0
  0
DIMENSION
  5
12D
100
AcDbEntity
  8
0
100
AcDbDimension
  2
*D4
 10
18.072649
 20
6.108355
 30
0.0
 11
14.072649
 21
6.108355
 31
0.0
 70
    32
  3
STANDARD
100
AcDbAlignedDimension
 13
10.072649
 23
6.140993
 33
0.0
 14
18.072649
 24
6.140993
 34
0.0
100
AcDbRotatedDimension
  0
LINE
  5
13C
100
AcDbEntity
  8
0
100
AcDbLine
 10
18.072649
 20
5.76785
 30
0.0
 11
23.572649
 21
5.76785
 31
0.0
  0
LINE
  5
13E
100
AcDbEntity
  8
0
100
AcDbLine
 10
21.802649
 20
8.228016
 30
0.0
 11
21.802649
 21
7.853016
 31
0.0
  0
LINE
  5
13F
100
AcDbEntity
  8
0
100
AcDbLine
 10
21.902649
 20
8.228016
 30
0.0
 11
21.902649
 21
7.853016
 31
0.0
  0
LINE
  5
140
100
AcDbEntity
  8
0
100
AcDbLine
 10
22.002649
 20
8.228016
 30
0.0
 11
22.002649
 21
7.853016
 31
0.0
  0
LINE
  5
141
100
AcDbEntity
  8
0
100
AcDbLine
 10
22.102649
 20
8.228016
 30
0.0
 11
22.102649
 21
7.853016
 31
0.0
  0
LINE
  5
142
100
AcDbEntity
  8
0
100
AcDbLine
 10
22.202649
 20
8.228016
 30
0.0
 11
22.202649
 21
7.853016
 31
0.0
  0
LINE
  5
143
100
AcDbEntity
  8
0
100
AcDbLine
 10
22.302649
 20
8.228016
 30
0.0
 11
22.302649
 21
7.853016
 31
0.0
  0
LINE
  5
144
100
AcDbEntity
  8
0
100
AcDbLine
 10
22.402649
 20
8.228016
 30
0.0
 11
22.402649
 21
7.853016
 31
0.0
  0
LINE
  5
145
100
AcDbEntity
  8
0
100
AcDbLine
 10
22.502649
 20
8.228016
 30
0.0
 11
22.502649
 21
7.853016
 31
0.0
  0
LINE
  5
146
100
AcDbEntity
  8
0
100
AcDbLine
 10
22.602649
 20
8.228016
 30
0.0
 11
22.602649
 21
7.853016
 31
0.0
  0
DIMENSION
  5
163
100
AcDbEntity
  8
0
100
AcDbDimension
  2
*D7
 10
23.572649
 20
6.102072
 30
0.0
 11
20.822649
 21
6.102072
 31
0.0
 70
    32
  3
STANDARD
100
AcDbAlignedDimension
 13
18.072649
 23
6.140993
 33
0.0
 14
23.572649
 24
6.140993
 34
0.0
100
AcDbRotatedDimension
  0
LINE
  5
165
100
AcDbEntity
  8
0
100
AcDbLine
 10
10.072649
 20
8.020721
 30
0.0
 11
10.072649
 21
7.490327
 31
0.0
  0
LINE
  5
167
100
AcDbEntity
  8
0
100
AcDbLine
 10
10.072649
 20
8.079821
 30
0.0
 11
10.072649
 21
8.590516
 31
0.0
  0
LINE
  5
16A
100
AcDbEntity
  8
0
100
AcDbLine
 10
10.062649
 20
8.079821
 30
0.0
 11
10.082649
 21
8.079821
 31
0.0
  0
LINE
  5
16B
100
AcDbEntity
  8
0
100
AcDbLine
 10
10.062649
 20
8.020721
 30
0.0
 11
10.082649
 21
8.020721
 31
0.0
  0
MTEXT
  5
172
100
AcDbEntity
  8
0
100
AcDbMText
 10
10.690044
 20
10.003608
 30
0.0
 40
0.18
 41
0.0
 71
     4
 72
     1
  1
{1mm diameter hole}
  0
MTEXT
  5
174
100
AcDbEntity
  8
0
100
AcDbMText
 10
12.011705
 20
9.748755
 30
0.0
 40
0.18
 41
0.0
 71
     4
 72
     1
  1

  0
LEADER
  5
176
100
AcDbEntity
  8
0
100
AcDbLeader
  3
STANDARD
 76
     2
 10
6.072649
 20
9.415516
 30
0.0
 10
5.684393
 20
9.783508
 30
0.0
 77
   256
  0
LEADER
  5
177
100
AcDbEntity
  8
0
100
AcDbLeader
  3
STANDARD
 76
     2
 10
10.101523
 20
8.045875
 30
0.0
 10
12.072421
 20
9.748755
 30
0.0
 77
   256
  0
LEADER
  5
178
100
AcDbEntity
  8
0
100
AcDbLeader
  3
STANDARD
 76
     2
 10
16.241428
 20
8.567165
 30
0.0
 10
16.241428
 20
9.702418
 30
0.0
 77
   256
  0
LEADER
  5
179
100
AcDbEntity
  8
0
100
AcDbLeader
  3
STANDARD
 76
     2
 10
21.463642
 20
8.265975
 30
0.0
 10
21.823041
 20
9.690834
 30
0.0
 77
   256
  0
MTEXT
  5
17C
100
AcDbEntity
  8
0
100
AcDbMText
 10
14.52106
 20
13.765326
 30
0.0
 40
0.5
 41
10.253
 71
     5
 72
     1
  1
{H2 Disociation Glassware}
  0
ENDSEC
  0
SECTION
  2
OBJECTS
  0
DICTIONARY
  5
C
100
AcDbDictionary
  3
ACAD_GROUP
350
D
  3
ACAD_MLINESTYLE
350
E
  0
DICTIONARY
  5
D
102
{ACAD_REACTORS
330
C
102
}
100
AcDbDictionary
  0
DICTIONARY
  5
E
102
{ACAD_REACTORS
330
C
102
}
100
AcDbDictionary
  3
STANDARD
350
13
  0
MLINESTYLE
  5
13
102
{ACAD_REACTORS
330
E
102
}
100
AcDbMlineStyle
  2
STANDARD
 70
     0
  3

 62
     0
 51
90.0
 52
90.0
 71
     2
 49
0.5
 62
   256
  6
BYLAYER
 49
-0.5
 62
   256
  6
BYLAYER
  0
ENDSEC
  0
EOF
